  0
SECTION
  2
HEADER
  9
$ACADVER
  1
AC1009
  9
$DWGCODEPAGE
  3
ansi_1252
  9
$INSBASE
 10
0.0
 20
0.0
 30
0.0
  9
$EXTMIN
 10
1.000000000000000E+20
 20
1.000000000000000E+20
 30
1.000000000000000E+20
  9
$EXTMAX
 10
-1.000000000000000E+20
 20
-1.000000000000000E+20
 30
-1.000000000000000E+20
  9
$LIMMIN
 10
0.0
 20
0.0
  9
$LIMMAX
 10
12.0
 20
9.0
  9
$ORTHOMODE
 70
     0
  9
$REGENMODE
 70
     1
  9
$FILLMODE
 70
     1
  9
$QTEXTMODE
 70
     0
  9
$MIRRTEXT
 70
     1
  9
$DRAGMODE
 70
     2
  9
$LTSCALE
 40
1.0
  9
$OSMODE
 70
    37
  9
$ATTMODE
 70
     1
  9
$TEXTSIZE
 40
0.2
  9
$TRACEWID
 40
0.05
  9
$TEXTSTYLE
  7
STANDARD
  9
$CLAYER
  8
0
  9
$CELTYPE
  6
BYLAYER
  9
$CECOLOR
 62
   256
  9
$DIMSCALE
 40
1.0
  9
$DIMASZ
 40
0.18
  9
$DIMEXO
 40
0.0625
  9
$DIMDLI
 40
0.38
  9
$DIMRND
 40
0.0
  9
$DIMDLE
 40
0.0
  9
$DIMEXE
 40
0.18
  9
$DIMTP
 40
0.0
  9
$DIMTM
 40
0.0
  9
$DIMTXT
 40
0.18
  9
$DIMCEN
 40
0.09
  9
$DIMTSZ
 40
0.0
  9
$DIMTOL
 70
     0
  9
$DIMLIM
 70
     0
  9
$DIMTIH
 70
     1
  9
$DIMTOH
 70
     1
  9
$DIMSE1
 70
     0
  9
$DIMSE2
 70
     0
  9
$DIMTAD
 70
     0
  9
$DIMZIN
 70
     0
  9
$DIMBLK
  1

  9
$DIMASO
 70
     1
  9
$DIMSHO
 70
     1
  9
$DIMPOST
  1

  9
$DIMAPOST
  1

  9
$DIMALT
 70
     0
  9
$DIMALTD
 70
     2
  9
$DIMALTF
 40
25.4
  9
$DIMLFAC
 40
1.0
  9
$DIMTOFL
 70
     0
  9
$DIMTVP
 40
0.0
  9
$DIMTIX
 70
     0
  9
$DIMSOXD
 70
     0
  9
$DIMSAH
 70
     0
  9
$DIMBLK1
  1

  9
$DIMBLK2
  1

  9
$DIMSTYLE
  2
STANDARD
  9
$DIMCLRD
 70
     0
  9
$DIMCLRE
 70
     0
  9
$DIMCLRT
 70
     0
  9
$DIMTFAC
 40
1.0
  9
$DIMGAP
 40
0.09
  9
$LUNITS
 70
     2
  9
$LUPREC
 70
     4
  9
$SKETCHINC
 40
0.1
  9
$FILLETRAD
 40
0.5
  9
$AUNITS
 70
     0
  9
$AUPREC
 70
     0
  9
$MENU
  1
.
  9
$ELEVATION
 40
0.0
  9
$PELEVATION
 40
0.0
  9
$THICKNESS
 40
0.0
  9
$LIMCHECK
 70
     0
  9
$CHAMFERA
 40
0.5
  9
$CHAMFERB
 40
0.5
  9
$SKPOLY
 70
     0
  9
$TDCREATE
 40
2453929.917622789
  9
$TDUPDATE
 40
2453929.959289467
  9
$TDINDWG
 40
0.0000000116
  9
$TDUSRTIMER
 40
0.0000000116
  9
$USRTIMER
 70
     1
  9
$ANGBASE
 50
0.0
  9
$ANGDIR
 70
     0
  9
$PDMODE
 70
     0
  9
$PDSIZE
 40
0.0
  9
$PLINEWID
 40
0.0
  9
$COORDS
 70
     1
  9
$SPLFRAME
 70
     0
  9
$SPLINETYPE
 70
     6
  9
$SPLINESEGS
 70
     8
  9
$ATTDIA
 70
     0
  9
$ATTREQ
 70
     1
  9
$HANDLING
 70
     1
  9
$HANDSEED
  5
498
  9
$SURFTAB1
 70
     6
  9
$SURFTAB2
 70
     6
  9
$SURFTYPE
 70
     6
  9
$SURFU
 70
     6
  9
$SURFV
 70
     6
  9
$UCSNAME
  2

  9
$UCSORG
 10
0.0
 20
0.0
 30
0.0
  9
$UCSXDIR
 10
1.0
 20
0.0
 30
0.0
  9
$UCSYDIR
 10
0.0
 20
1.0
 30
0.0
  9
$PUCSNAME
  2

  9
$PUCSORG
 10
0.0
 20
0.0
 30
0.0
  9
$PUCSXDIR
 10
1.0
 20
0.0
 30
0.0
  9
$PUCSYDIR
 10
0.0
 20
1.0
 30
0.0
  9
$USERI1
 70
     0
  9
$USERI2
 70
     0
  9
$USERI3
 70
     0
  9
$USERI4
 70
     0
  9
$USERI5
 70
     0
  9
$USERR1
 40
0.0
  9
$USERR2
 40
0.0
  9
$USERR3
 40
0.0
  9
$USERR4
 40
0.0
  9
$USERR5
 40
0.0
  9
$WORLDVIEW
 70
     1
  9
$SHADEDGE
 70
     3
  9
$SHADEDIF
 70
    70
  9
$TILEMODE
 70
     1
  9
$MAXACTVP
 70
    64
  9
$PLIMCHECK
 70
     0
  9
$PEXTMIN
 10
1.000000000000000E+20
 20
1.000000000000000E+20
 30
1.000000000000000E+20
  9
$PEXTMAX
 10
-1.000000000000000E+20
 20
-1.000000000000000E+20
 30
-1.000000000000000E+20
  9
$PLIMMIN
 10
0.0
 20
0.0
  9
$PLIMMAX
 10
12.0
 20
9.0
  9
$UNITMODE
 70
     0
  9
$VISRETAIN
 70
     1
  9
$PLINEGEN
 70
     0
  9
$PSLTSCALE
 70
     1
  0
ENDSEC
  0
SECTION
  2
TABLES
  0
TABLE
  2
VPORT
 70
     2
  0
VPORT
  2
*ACTIVE
 70
     0
 10
0.0
 20
0.0
 11
1.0
 21
1.0
 12
325.3307658321036
 22
90.62097732163403
 13
0.0
 23
0.0
 14
0.5
 24
0.5
 15
0.5
 25
0.5
 16
0.0
 26
0.0
 36
80.21230066091221
 17
0.0
 27
0.0
 37
0.0
 40
814.7948668917074
 41
1.972972972850329
 42
50.0
 43
0.0
 44
0.0
 50
0.0
 51
0.0
 71
     0
 72
   100
 73
     1
 74
     3
 75
     0
 76
     0
 77
     0
 78
     0
  0
ENDTAB
  0
TABLE
  2
LTYPE
 70
     1
  0
LTYPE
  2
CONTINUOUS
 70
     0
  3
Solid line
 72
    65
 73
     0
 40
0.0
  0
ENDTAB
  0
TABLE
  2
LAYER
 70
     2
  0
LAYER
  2
0
 70
     0
 62
     7
  6
CONTINUOUS
  0
LAYER
  2
DEFPOINTS
 70
     0
 62
     7
  6
CONTINUOUS
  0
ENDTAB
  0
TABLE
  2
STYLE
 70
     2
  0
STYLE
  2
STANDARD
 70
     0
 40
0.0
 41
1.0
 50
0.0
 71
     0
 42
0.2
  3
txt
  4

  0
STYLE
  2
DEFAULT
 70
     0
 40
0.0
 41
1.0
 50
0.0
 71
     0
 42
0.0
  3
ARIAL.TTF
  4

  0
ENDTAB
  0
TABLE
  2
VIEW
 70
     0
  0
ENDTAB
  0
TABLE
  2
UCS
 70
     0
  0
ENDTAB
  0
TABLE
  2
APPID
 70
     1
  0
APPID
  2
ACAD
 70
     0
  0
ENDTAB
  0
TABLE
  2
DIMSTYLE
 70
     2
  0
DIMSTYLE
  2
STANDARD
 70
     0
  3

  4

  5

  6

  7

 40
1.0
 41
0.18
 42
0.0625
 43
0.38
 44
0.18
 45
0.0
 46
0.0
 47
0.0
 48
0.0
140
0.18
141
0.09
142
0.0
143
25.4
144
1.0
145
0.0
146
1.0
147
0.09
 71
     0
 72
     0
 73
     1
 74
     1
 75
     0
 76
     0
 77
     0
 78
     0
170
     0
171
     2
172
     0
173
     0
174
     0
175
     0
176
     0
177
     0
178
     0
  0
DIMSTYLE
  2
ISO-25
 70
     0
  3

  4

  5

  6

  7

 40
1.0
 41
2.5
 42
0.625
 43
0.38
 44
1.25
 45
0.0
 46
0.0
 47
0.0
 48
0.0
140
2.5
141
2.5
142
0.0
143
25.4
144
1.0
145
0.0
146
1.0
147
0.09
 71
     0
 72
     0
 73
     0
 74
     0
 75
     0
 76
     0
 77
     1
 78
     0
170
     0
171
     2
172
     0
173
     0
174
     0
175
     0
176
     0
177
     0
178
     0
  0
ENDTAB
  0
ENDSEC
  0
SECTION
  2
BLOCKS
  0
BLOCK
  8
0
  2
$MODEL_SPACE
 70
     0
 10
0.0
 20
0.0
 30
0.0
  3
$MODEL_SPACE
  1

  0
ENDBLK
  5
21
  8
0
  0
BLOCK
 67
     1
  8
0
  2
$PAPER_SPACE
 70
     0
 10
0.0
 20
0.0
 30
0.0
  3
$PAPER_SPACE
  1

  0
ENDBLK
  5
1D
 67
     1
  8
0
  0
BLOCK
  8
0
  2
$PAPER_SPACE0
 70
     0
 10
0.0
 20
0.0
 30
0.0
  3
$PAPER_SPACE0
  1

  0
ENDBLK
  5
25
  8
0
  0
BLOCK
  8
0
  2
*D1
 70
     1
 10
0.0
 20
0.0
 30
0.0
  3
*D1
  1

  0
LINE
  5
5B
  8
0
 62
     0
 10
84.43980380274667
 20
273.1848762067942
 30
0.0
 11
84.43980380274667
 21
344.4439506745671
 31
0.0
  0
LINE
  5
5C
  8
0
 62
     0
 10
178.2185252179493
 20
273.1848762067942
 30
0.0
 11
178.2185252179493
 21
344.4439506745671
 31
0.0
  0
LINE
  5
5D
  8
0
 62
     0
 10
81.93980380274667
 20
343.1939506745671
 30
0.0
 11
61.35833225517399
 21
343.1939506745671
 31
0.0
  0
LINE
  5
5E
  8
0
 62
     0
 10
180.7185252179493
 20
343.1939506745671
 30
0.0
 11
201.299996765522
 21
343.1939506745671
 31
0.0
  0
SOLID
  5
5F
  8
0
 62
     0
 10
81.93980380274667
 20
342.7772840079004
 30
0.0
 11
81.93980380274667
 21
343.6106173412338
 31
0.0
 12
84.43980380274667
 22
343.1939506745671
 32
0.0
 13
84.43980380274667
 23
343.1939506745671
 33
0.0
  0
SOLID
  5
60
  8
0
 62
     0
 10
180.7185252179493
 20
343.6106173412338
 30
0.0
 11
180.7185252179493
 21
342.7772840079004
 31
0.0
 12
178.2185252179493
 22
343.1939506745671
 32
0.0
 13
178.2185252179493
 23
343.1939506745671
 33
0.0
  0
TEXT
  5
61
  8
0
 62
     0
 10
126.967914510348
 20
343.3314506745671
 30
0.0
 40
2.5
  1
93.78
  7
DEFAULT
  0
POINT
  5
62
  8
DEFPOINTS
 62
     0
 10
84.43980380274667
 20
272.5598762067942
 30
0.0
  0
POINT
  5
63
  8
DEFPOINTS
 62
     0
 10
178.2185252179493
 20
272.5598762067942
 30
0.0
  0
POINT
  5
64
  8
DEFPOINTS
 62
     0
 10
178.2185252179493
 20
343.1939506745671
 30
0.0
  0
ENDBLK
  5
66
  8
0
  0
BLOCK
  8
0
  2
*D2
 70
     1
 10
0.0
 20
0.0
 30
0.0
  3
*D2
  1

  0
LINE
  5
69
  8
0
 62
     0
 10
84.43980380274667
 20
273.8098762067942
 30
0.0
 11
84.43980380274667
 21
330.2172250798424
 31
0.0
  0
LINE
  5
6A
  8
0
 62
     0
 10
89.51852521794933
 20
262.3848762067942
 30
0.0
 11
89.51852521794933
 21
330.2172250798424
 31
0.0
  0
LINE
  5
6B
  8
0
 62
     0
 10
81.93980380274667
 20
328.9672250798424
 30
0.0
 11
79.43980380274667
 21
328.9672250798424
 31
0.0
  0
LINE
  5
6C
  8
0
 62
     0
 10
92.01852521794933
 20
328.9672250798424
 30
0.0
 11
188.1701897282974
 21
328.9672250798424
 31
0.0
  0
SOLID
  5
6D
  8
0
 62
     0
 10
81.93980380274667
 20
328.5505584131757
 30
0.0
 11
81.93980380274667
 21
329.3838917465091
 31
0.0
 12
84.43980380274667
 22
328.9672250798424
 32
0.0
 13
84.43980380274667
 23
328.9672250798424
 33
0.0
  0
SOLID
  5
6E
  8
0
 62
     0
 10
92.01852521794933
 20
329.3838917465091
 30
0.0
 11
92.01852521794933
 21
328.5505584131757
 31
0.0
 12
89.51852521794933
 22
328.9672250798424
 32
0.0
 13
89.51852521794933
 23
328.9672250798424
 33
0.0
  0
TEXT
  5
6F
  8
0
 62
     0
 10
137.9531074731233
 20
494.2714626197635
 30
0.0
 40
2.5
  1
5.08
  7
DEFAULT
  0
POINT
  5
70
  8
DEFPOINTS
 62
     0
 10
84.43980380274667
 20
273.1848762067942
 30
0.0
  0
POINT
  5
71
  8
DEFPOINTS
 62
     0
 10
89.51852521794933
 20
261.7598762067942
 30
0.0
  0
POINT
  5
72
  8
DEFPOINTS
 62
     0
 10
89.51852521794933
 20
328.9672250798424
 30
0.0
  0
ENDBLK
  5
74
  8
0
  0
BLOCK
  8
0
  2
*D3
 70
     1
 10
0.0
 20
0.0
 30
0.0
  3
*D3
  1

  0
LINE
  5
77
  8
0
 62
     0
 10
84.43980380274667
 20
274.4348762067942
 30
0.0
 11
84.43980380274667
 21
289.2958865645135
 31
0.0
  0
LINE
  5
78
  8
0
 62
     0
 10
136.9185252179493
 20
262.3848762067942
 30
0.0
 11
136.9185252179493
 21
289.2958865645135
 31
0.0
  0
LINE
  5
79
  8
0
 62
     0
 10
81.93980380274667
 20
288.0458865645135
 30
0.0
 11
51.03333225517399
 21
288.0458865645135
 31
0.0
  0
LINE
  5
7A
  8
0
 62
     0
 10
139.4185252179493
 20
288.0458865645135
 30
0.0
 11
170.324996765522
 21
288.0458865645135
 31
0.0
  0
SOLID
  5
7B
  8
0
 62
     0
 10
81.93980380274667
 20
287.6292198978468
 30
0.0
 11
81.93980380274667
 21
288.4625532311802
 31
0.0
 12
84.43980380274667
 22
288.0458865645135
 32
0.0
 13
84.43980380274667
 23
288.0458865645135
 33
0.0
  0
SOLID
  5
7C
  8
0
 62
     0
 10
139.4185252179493
 20
288.4625532311802
 30
0.0
 11
139.4185252179493
 21
287.6292198978468
 31
0.0
 12
136.9185252179493
 22
288.0458865645135
 32
0.0
 13
136.9185252179493
 23
288.0458865645135
 33
0.0
  0
TEXT
  5
7D
  8
0
 62
     0
 10
106.317914510348
 20
288.1833865645135
 30
0.0
 40
2.5
  1
52.48
  7
DEFAULT
  0
POINT
  5
7E
  8
DEFPOINTS
 62
     0
 10
84.43980380274667
 20
273.8098762067942
 30
0.0
  0
POINT
  5
7F
  8
DEFPOINTS
 62
     0
 10
136.9185252179493
 20
261.7598762067942
 30
0.0
  0
POINT
  5
80
  8
DEFPOINTS
 62
     0
 10
136.9185252179493
 20
288.0458865645135
 30
0.0
  0
ENDBLK
  5
82
  8
0
  0
BLOCK
  8
0
  2
*D4
 70
     1
 10
0.0
 20
0.0
 30
0.0
  3
*D4
  1

  0
LINE
  5
85
  8
0
 62
     0
 10
84.43980380274667
 20
273.1848762067942
 30
0.0
 11
84.43980380274667
 21
281.235622651468
 31
0.0
  0
LINE
  5
86
  8
0
 62
     0
 10
168.2185252179493
 20
258.1848762067942
 30
0.0
 11
168.2185252179493
 21
281.235622651468
 31
0.0
  0
LINE
  5
87
  8
0
 62
     0
 10
81.93980380274667
 20
279.985622651468
 30
0.0
 11
58.85708225517399
 21
279.985622651468
 31
0.0
  0
LINE
  5
88
  8
0
 62
     0
 10
170.7185252179493
 20
279.985622651468
 30
0.0
 11
193.801246765522
 21
279.985622651468
 31
0.0
  0
SOLID
  5
89
  8
0
 62
     0
 10
81.93980380274667
 20
279.5689559848013
 30
0.0
 11
81.93980380274667
 21
280.4022893181347
 31
0.0
 12
84.43980380274667
 22
279.985622651468
 32
0.0
 13
84.43980380274667
 23
279.985622651468
 33
0.0
  0
SOLID
  5
8A
  8
0
 62
     0
 10
170.7185252179493
 20
280.4022893181347
 30
0.0
 11
170.7185252179493
 21
279.5689559848013
 31
0.0
 12
168.2185252179493
 22
279.985622651468
 32
0.0
 13
168.2185252179493
 23
279.985622651468
 33
0.0
  0
TEXT
  5
8B
  8
0
 62
     0
 10
121.969164510348
 20
280.123122651468
 30
0.0
 40
2.5
  1
83.78
  7
DEFAULT
  0
POINT
  5
8C
  8
DEFPOINTS
 62
     0
 10
84.43980380274667
 20
272.5598762067942
 30
0.0
  0
POINT
  5
8D
  8
DEFPOINTS
 62
     0
 10
168.2185252179493
 20
257.5598762067942
 30
0.0
  0
POINT
  5
8E
  8
DEFPOINTS
 62
     0
 10
168.2185252179493
 20
279.985622651468
 30
0.0
  0
ENDBLK
  5
90
  8
0
  0
BLOCK
  8
0
  2
*D5
 70
     1
 10
0.0
 20
0.0
 30
0.0
  3
*D5
  1

  0
LINE
  5
93
  8
0
 62
     0
 10
84.43980380274667
 20
273.1848762067942
 30
0.0
 11
84.43980380274667
 21
318.9480652995665
 31
0.0
  0
LINE
  5
94
  8
0
 62
     0
 10
113.2185252179493
 20
238.6848762067942
 30
0.0
 11
113.2185252179493
 21
318.9480652995665
 31
0.0
  0
LINE
  5
95
  8
0
 62
     0
 10
81.93980380274667
 20
317.6980652995665
 30
0.0
 11
45.087082255174
 21
317.6980652995665
 31
0.0
  0
LINE
  5
96
  8
0
 62
     0
 10
115.7185252179493
 20
317.6980652995665
 30
0.0
 11
152.571246765522
 21
317.6980652995665
 31
0.0
  0
SOLID
  5
97
  8
0
 62
     0
 10
81.93980380274667
 20
317.2813986328998
 30
0.0
 11
81.93980380274667
 21
318.1147319662331
 31
0.0
 12
84.43980380274667
 22
317.6980652995665
 32
0.0
 13
84.43980380274667
 23
317.6980652995665
 33
0.0
  0
SOLID
  5
98
  8
0
 62
     0
 10
115.7185252179493
 20
318.1147319662331
 30
0.0
 11
115.7185252179493
 21
317.2813986328998
 31
0.0
 12
113.2185252179493
 22
317.6980652995665
 32
0.0
 13
113.2185252179493
 23
317.6980652995665
 33
0.0
  0
TEXT
  5
99
  8
0
 62
     0
 10
94.48916451034799
 20
317.8355652995664
 30
0.0
 40
2.5
  1
28.78
  7
DEFAULT
  0
POINT
  5
9A
  8
DEFPOINTS
 62
     0
 10
84.43980380274667
 20
272.5598762067942
 30
0.0
  0
POINT
  5
9B
  8
DEFPOINTS
 62
     0
 10
113.2185252179493
 20
238.0598762067942
 30
0.0
  0
POINT
  5
9C
  8
DEFPOINTS
 62
     0
 10
113.2185252179493
 20
317.6980652995665
 30
0.0
  0
ENDBLK
  5
9E
  8
0
  0
BLOCK
  8
0
  2
*D6
 70
     1
 10
0.0
 20
0.0
 30
0.0
  3
*D6
  1

  0
LINE
  5
A1
  8
0
 62
     0
 10
83.81480380274667
 20
272.5598762067942
 30
0.0
 11
67.96648647087162
 21
272.5598762067942
 31
0.0
  0
LINE
  5
A2
  8
0
 62
     0
 10
121.5935252179493
 20
266.5598762067942
 30
0.0
 11
67.96648647087162
 21
266.5598762067942
 31
0.0
  0
LINE
  5
A3
  8
0
 62
     0
 10
69.21648647087159
 20
270.0598762067942
 30
0.0
 11
69.21648647087159
 21
269.0598762067942
 31
0.0
  0
LINE
  5
A4
  8
0
 62
     0
 10
69.21648647087159
 20
266.5598762067942
 30
0.0
 11
69.21648647087159
 21
189.5371397359226
 31
0.0
  0
SOLID
  5
A5
  8
0
 62
     0
 10
69.63315313753826
 20
270.0598762067942
 30
0.0
 11
68.79981980420492
 21
270.0598762067942
 31
0.0
 12
69.21648647087159
 22
272.5598762067942
 32
0.0
 13
69.21648647087159
 23
272.5598762067942
 33
0.0
  0
SOLID
  5
A6
  8
0
 62
     0
 10
68.79981980420492
 20
269.0598762067942
 30
0.0
 11
69.63315313753826
 21
269.0598762067942
 31
0.0
 12
69.21648647087159
 22
266.5598762067942
 32
0.0
 13
69.21648647087159
 23
266.5598762067942
 33
0.0
  0
TEXT
  5
A7
  8
0
 62
     0
 10
-65.70095163252552
 20
223.4222579713584
 30
0.0
 40
2.5
  1
6.00
 50
90.0
  7
DEFAULT
  0
POINT
  5
A8
  8
DEFPOINTS
 62
     0
 10
84.43980380274667
 20
272.5598762067942
 30
0.0
  0
POINT
  5
A9
  8
DEFPOINTS
 62
     0
 10
122.2185252179493
 20
266.5598762067942
 30
0.0
  0
POINT
  5
AA
  8
DEFPOINTS
 62
     0
 10
69.21648647087162
 20
266.5598762067942
 30
0.0
  0
ENDBLK
  5
AC
  8
0
  0
BLOCK
  8
0
  2
*D7
 70
     1
 10
0.0
 20
0.0
 30
0.0
  3
*D7
  1

  0
LINE
  5
AF
  8
0
 62
     0
 10
83.18980380274667
 20
272.5598762067942
 30
0.0
 11
56.266551676235
 21
272.5598762067942
 31
0.0
  0
LINE
  5
B0
  8
0
 62
     0
 10
88.89352521794933
 20
261.7598762067942
 30
0.0
 11
56.266551676235
 21
261.7598762067942
 31
0.0
  0
LINE
  5
B1
  8
0
 62
     0
 10
57.516551676235
 20
270.0598762067942
 30
0.0
 11
57.516551676235
 21
261.7598762067942
 31
0.0
  0
LINE
  5
B2
  8
0
 62
     0
 10
57.516551676235
 20
261.7598762067942
 30
0.0
 11
57.516551676235
 21
194.7470745305593
 31
0.0
  0
SOLID
  5
B3
  8
0
 62
     0
 10
57.93321834290166
 20
270.0598762067942
 30
0.0
 11
57.09988500956833
 21
270.0598762067942
 31
0.0
 12
57.516551676235
 22
272.5598762067942
 32
0.0
 13
57.516551676235
 23
272.5598762067942
 33
0.0
  0
SOLID
  5
B4
  8
0
 62
     0
 10
57.09988500956833
 20
264.2598762067942
 30
0.0
 11
57.93321834290166
 21
264.2598762067942
 31
0.0
 12
57.516551676235
 22
261.7598762067942
 32
0.0
 13
57.516551676235
 23
261.7598762067942
 33
0.0
  0
TEXT
  5
B5
  8
0
 62
     0
 10
-76.20088642716212
 20
222.5322253686767
 30
0.0
 40
2.5
  1
10.80
 50
90.0
  7
DEFAULT
  0
POINT
  5
B6
  8
DEFPOINTS
 62
     0
 10
83.81480380274667
 20
272.5598762067942
 30
0.0
  0
POINT
  5
B7
  8
DEFPOINTS
 62
     0
 10
89.51852521794933
 20
261.7598762067942
 30
0.0
  0
POINT
  5
B8
  8
DEFPOINTS
 62
     0
 10
57.516551676235
 20
261.7598762067942
 30
0.0
  0
ENDBLK
  5
BA
  8
0
  0
BLOCK
  8
0
  2
*D8
 70
     1
 10
0.0
 20
0.0
 30
0.0
  3
*D8
  1

  0
LINE
  5
BD
  8
0
 62
     0
 10
83.81480380274667
 20
272.5598762067942
 30
0.0
 11
36.8103804915138
 21
272.5598762067942
 31
0.0
  0
LINE
  5
BE
  8
0
 62
     0
 10
167.5935252179493
 20
257.5598762067942
 30
0.0
 11
36.8103804915138
 21
257.5598762067942
 31
0.0
  0
LINE
  5
BF
  8
0
 62
     0
 10
38.0603804915138
 20
275.0598762067942
 30
0.0
 11
38.0603804915138
 21
287.5881914525511
 31
0.0
  0
LINE
  5
C0
  8
0
 62
     0
 10
38.0603804915138
 20
255.0598762067942
 30
0.0
 11
38.0603804915138
 21
242.5315609610373
 31
0.0
  0
SOLID
  5
C1
  8
0
 62
     0
 10
37.64371382484713
 20
275.0598762067942
 30
0.0
 11
38.47704715818046
 21
275.0598762067942
 31
0.0
 12
38.0603804915138
 22
272.5598762067942
 32
0.0
 13
38.0603804915138
 23
272.5598762067942
 33
0.0
  0
SOLID
  5
C2
  8
0
 62
     0
 10
38.47704715818046
 20
255.0598762067942
 30
0.0
 11
37.64371382484713
 21
255.0598762067942
 31
0.0
 12
38.0603804915138
 22
257.5598762067942
 32
0.0
 13
38.0603804915138
 23
257.5598762067942
 33
0.0
  0
TEXT
  5
C3
  8
0
 62
     0
 10
37.92288049151381
 20
260.5886262067942
 30
0.0
 40
2.5
  1
15.00
 50
90.0
  7
DEFAULT
  0
POINT
  5
C4
  8
DEFPOINTS
 62
     0
 10
84.43980380274667
 20
272.5598762067942
 30
0.0
  0
POINT
  5
C5
  8
DEFPOINTS
 62
     0
 10
168.2185252179493
 20
257.5598762067942
 30
0.0
  0
POINT
  5
C6
  8
DEFPOINTS
 62
     0
 10
38.0603804915138
 20
257.5598762067942
 30
0.0
  0
ENDBLK
  5
C8
  8
0
  0
BLOCK
  8
0
  2
*D9
 70
     1
 10
0.0
 20
0.0
 30
0.0
  3
*D9
  1

  0
LINE
  5
CB
  8
0
 62
     0
 10
83.81480380274667
 20
272.5598762067942
 30
0.0
 11
28.05397703089972
 21
272.5598762067942
 31
0.0
  0
LINE
  5
CC
  8
0
 62
     0
 10
112.5935252179493
 20
238.0598762067942
 30
0.0
 11
28.05397703089972
 21
238.0598762067942
 31
0.0
  0
LINE
  5
CD
  8
0
 62
     0
 10
29.30397703089972
 20
275.0598762067942
 30
0.0
 11
29.30397703089972
 21
273.5762397222441
 31
0.0
  0
LINE
  5
CE
  8
0
 62
     0
 10
29.30397703089972
 20
235.5598762067942
 30
0.0
 11
29.30397703089972
 21
237.0435126913444
 31
0.0
  0
SOLID
  5
CF
  8
0
 62
     0
 10
28.88731036423305
 20
275.0598762067942
 30
0.0
 11
29.72064369756638
 21
275.0598762067942
 31
0.0
 12
29.30397703089972
 22
272.5598762067942
 32
0.0
 13
29.30397703089972
 23
272.5598762067942
 33
0.0
  0
SOLID
  5
D0
  8
0
 62
     0
 10
29.72064369756638
 20
235.5598762067942
 30
0.0
 11
28.88731036423305
 21
235.5598762067942
 31
0.0
 12
29.30397703089972
 22
238.0598762067942
 32
0.0
 13
29.30397703089972
 23
238.0598762067942
 33
0.0
  0
TEXT
  5
D1
  8
0
 62
     0
 10
29.16647703089973
 20
250.9548762067942
 30
0.0
 40
2.5
  1
34.50
 50
90.0
  7
DEFAULT
  0
POINT
  5
D2
  8
DEFPOINTS
 62
     0
 10
84.43980380274667
 20
272.5598762067942
 30
0.0
  0
POINT
  5
D3
  8
DEFPOINTS
 62
     0
 10
113.2185252179493
 20
238.0598762067942
 30
0.0
  0
POINT
  5
D4
  8
DEFPOINTS
 62
     0
 10
29.30397703089972
 20
238.0598762067942
 30
0.0
  0
ENDBLK
  5
D6
  8
0
  0
BLOCK
  8
0
  2
*D10
 70
     1
 10
0.0
 20
0.0
 30
0.0
  3
*D10
  1

  0
LINE
  5
D9
  8
0
 62
     0
 10
85.06480380274667
 20
272.5598762067942
 30
0.0
 11
193.1600009619156
 21
272.5598762067942
 31
0.0
  0
LINE
  5
DA
  8
0
 62
     0
 10
168.8435252179493
 20
218.5598762067942
 30
0.0
 11
193.1600009619156
 21
218.5598762067942
 31
0.0
  0
LINE
  5
DB
  8
0
 62
     0
 10
191.9100009619156
 20
275.0598762067942
 30
0.0
 11
191.9100009619156
 21
345.130501687752
 31
0.0
  0
LINE
  5
DC
  8
0
 62
     0
 10
191.9100009619156
 20
216.0598762067942
 30
0.0
 11
191.9100009619157
 21
145.9892507258364
 31
0.0
  0
SOLID
  5
DD
  8
0
 62
     0
 10
191.4933342952489
 20
275.0598762067942
 30
0.0
 11
192.3266676285822
 21
275.0598762067942
 31
0.0
 12
191.9100009619156
 22
272.5598762067942
 32
0.0
 13
191.9100009619156
 23
272.5598762067942
 33
0.0
  0
SOLID
  5
DE
  8
0
 62
     0
 10
192.3266676285823
 20
216.0598762067942
 30
0.0
 11
191.493334295249
 21
216.0598762067942
 31
0.0
 12
191.9100009619156
 22
218.5598762067942
 32
0.0
 13
191.9100009619156
 23
218.5598762067942
 33
0.0
  0
TEXT
  5
DF
  8
0
 62
     0
 10
191.7725009619156
 20
241.2061262067942
 30
0.0
 40
2.5
  1
54.00
 50
90.0
  7
DEFAULT
  0
POINT
  5
E0
  8
DEFPOINTS
 62
     0
 10
84.43980380274667
 20
272.5598762067942
 30
0.0
  0
POINT
  5
E1
  8
DEFPOINTS
 62
     0
 10
168.2185252179493
 20
218.5598762067942
 30
0.0
  0
POINT
  5
E2
  8
DEFPOINTS
 62
     0
 10
191.9100009619156
 20
218.5598762067942
 30
0.0
  0
ENDBLK
  5
E4
  8
0
  0
BLOCK
  8
0
  2
*D11
 70
     1
 10
0.0
 20
0.0
 30
0.0
  3
*D11
  1

  0
LINE
  5
E7
  8
0
 62
     0
 10
178.8435252179493
 20
272.5598762067942
 30
0.0
 11
207.5116568048402
 21
272.5598762067942
 31
0.0
  0
LINE
  5
E8
  8
0
 62
     0
 10
137.5435252179493
 20
214.3598762067942
 30
0.0
 11
207.5116568048402
 21
214.3598762067942
 31
0.0
  0
LINE
  5
E9
  8
0
 62
     0
 10
206.2616568048402
 20
275.0598762067942
 30
0.0
 11
206.2616568048402
 21
350.2063296092144
 31
0.0
  0
LINE
  5
EA
  8
0
 62
     0
 10
206.2616568048402
 20
211.8598762067942
 30
0.0
 11
206.2616568048402
 21
136.7134228043741
 31
0.0
  0
SOLID
  5
EB
  8
0
 62
     0
 10
205.8449901381736
 20
275.0598762067942
 30
0.0
 11
206.6783234715069
 21
275.0598762067942
 31
0.0
 12
206.2616568048402
 22
272.5598762067942
 32
0.0
 13
206.2616568048402
 23
272.5598762067942
 33
0.0
  0
SOLID
  5
EC
  8
0
 62
     0
 10
206.6783234715069
 20
211.8598762067942
 30
0.0
 11
205.8449901381736
 21
211.8598762067942
 31
0.0
 12
206.2616568048402
 22
214.3598762067942
 32
0.0
 13
206.2616568048402
 23
214.3598762067942
 33
0.0
  0
TEXT
  5
ED
  8
0
 62
     0
 10
206.1241568048402
 20
239.1061262067942
 30
0.0
 40
2.5
  1
58.20
 50
90.0
  7
DEFAULT
  0
POINT
  5
EE
  8
DEFPOINTS
 62
     0
 10
178.2185252179493
 20
272.5598762067942
 30
0.0
  0
POINT
  5
EF
  8
DEFPOINTS
 62
     0
 10
136.9185252179493
 20
214.3598762067942
 30
0.0
  0
POINT
  5
F0
  8
DEFPOINTS
 62
     0
 10
206.2616568048402
 20
214.3598762067942
 30
0.0
  0
ENDBLK
  5
F2
  8
0
  0
BLOCK
  8
0
  2
*D12
 70
     1
 10
0.0
 20
0.0
 30
0.0
  3
*D12
  1

  0
LINE
  5
F5
  8
0
 62
     0
 10
178.8435252179493
 20
272.5598762067942
 30
0.0
 11
219.0982207380803
 21
272.5598762067942
 31
0.0
  0
LINE
  5
F6
  8
0
 62
     0
 10
122.8435252179493
 20
209.5598762067942
 30
0.0
 11
219.0982207380803
 21
209.5598762067942
 31
0.0
  0
LINE
  5
F7
  8
0
 62
     0
 10
217.8482207380803
 20
275.0598762067942
 30
0.0
 11
217.8482207380803
 21
353.6071115758344
 31
0.0
  0
LINE
  5
F8
  8
0
 62
     0
 10
217.8482207380803
 20
207.0598762067942
 30
0.0
 11
217.8482207380803
 21
128.5126408377541
 31
0.0
  0
SOLID
  5
F9
  8
0
 62
     0
 10
217.4315540714137
 20
275.0598762067942
 30
0.0
 11
218.264887404747
 21
275.0598762067942
 31
0.0
 12
217.8482207380803
 22
272.5598762067942
 32
0.0
 13
217.8482207380803
 23
272.5598762067942
 33
0.0
  0
SOLID
  5
FA
  8
0
 62
     0
 10
218.264887404747
 20
207.0598762067942
 30
0.0
 11
217.4315540714137
 21
207.0598762067942
 31
0.0
 12
217.8482207380803
 22
209.5598762067942
 32
0.0
 13
217.8482207380803
 23
209.5598762067942
 33
0.0
  0
TEXT
  5
FB
  8
0
 62
     0
 10
217.7107207380803
 20
236.7136262067942
 30
0.0
 40
2.5
  1
63.00
 50
90.0
  7
DEFAULT
  0
POINT
  5
FC
  8
DEFPOINTS
 62
     0
 10
178.2185252179493
 20
272.5598762067942
 30
0.0
  0
POINT
  5
FD
  8
DEFPOINTS
 62
     0
 10
122.2185252179493
 20
209.5598762067942
 30
0.0
  0
POINT
  5
FE
  8
DEFPOINTS
 62
     0
 10
217.8482207380803
 20
209.5598762067942
 30
0.0
  0
ENDBLK
  5
100
  8
0
  0
BLOCK
  8
0
  2
*D13
 70
     1
 10
0.0
 20
0.0
 30
0.0
  3
*D13
  1

  0
LINE
  5
103
  8
0
 62
     0
 10
179.4685252179493
 20
272.5598762067942
 30
0.0
 11
240.5561375643607
 21
272.5598762067942
 31
0.0
  0
LINE
  5
104
  8
0
 62
     0
 10
178.8435252179493
 20
203.5598762067942
 30
0.0
 11
240.5561375643607
 21
203.5598762067942
 31
0.0
  0
LINE
  5
105
  8
0
 62
     0
 10
239.3061375643607
 20
275.0598762067942
 30
0.0
 11
239.3061375643607
 21
361.3360699889745
 31
0.0
  0
LINE
  5
106
  8
0
 62
     0
 10
239.3061375643607
 20
201.0598762067942
 30
0.0
 11
239.3061375643607
 21
114.7836824246139
 31
0.0
  0
SOLID
  5
107
  8
0
 62
     0
 10
238.889470897694
 20
275.0598762067942
 30
0.0
 11
239.7228042310273
 21
275.0598762067942
 31
0.0
 12
239.3061375643607
 22
272.5598762067942
 32
0.0
 13
239.3061375643607
 23
272.5598762067942
 33
0.0
  0
SOLID
  5
108
  8
0
 62
     0
 10
239.7228042310273
 20
201.0598762067942
 30
0.0
 11
238.889470897694
 21
201.0598762067942
 31
0.0
 12
239.3061375643607
 22
203.5598762067942
 32
0.0
 13
239.3061375643607
 23
203.5598762067942
 33
0.0
  0
TEXT
  5
109
  8
0
 62
     0
 10
239.1686375643607
 20
233.7136262067942
 30
0.0
 40
2.5
  1
69.00
 50
90.0
  7
DEFAULT
  0
POINT
  5
10A
  8
DEFPOINTS
 62
     0
 10
178.8435252179493
 20
272.5598762067942
 30
0.0
  0
POINT
  5
10B
  8
DEFPOINTS
 62
     0
 10
178.2185252179493
 20
203.5598762067942
 30
0.0
  0
POINT
  5
10C
  8
DEFPOINTS
 62
     0
 10
239.3061375643607
 20
203.5598762067942
 30
0.0
  0
ENDBLK
  5
10E
  8
0
  0
BLOCK
  8
0
  2
*D14
 70
     1
 10
0.0
 20
0.0
 30
0.0
  3
*D14
  1

  0
LINE
  5
111
  8
0
 62
     0
 10
97.03633323306515
 20
219.3973893916119
 30
0.0
 11
103.3917804267642
 21
226.7269557178418
 31
0.0
  0
LINE
  5
112
  8
0
 62
     0
 10
123.0452700091344
 20
249.3927966957466
 30
0.0
 11
124.6830608076652
 21
251.2816167772387
 31
0.0
  0
TEXT
  5
113
  8
0
 62
     0
 10
89.41174938448516
 20
210.9628768161294
 30
0.0
 40
2.5
  1
\U+220525.00
 50
49.07152950325403
  7
DEFAULT
  0
SOLID
  5
114
  8
0
 62
     0
 10
103.7065837736795
 20
226.4539905847534
 30
0.0
 11
103.0769770798488
 21
226.9999208509303
 31
0.0
 12
105.029571225295
 22
228.6157757993339
 32
0.0
 13
105.029571225295
 23
228.6157757993339
 33
0.0
  0
SOLID
  5
115
  8
0
 62
     0
 10
122.730466662219
 20
249.6657618288351
 30
0.0
 11
123.3600733560497
 21
249.1198315626582
 31
0.0
 12
121.4074792106035
 22
247.5039766142546
 32
0.0
 13
121.4074792106035
 23
247.5039766142546
 33
0.0
  0
LINE
  5
116
  8
0
 62
     0
 10
110.7185252179493
 20
238.0598762067942
 30
0.0
 11
115.7185252179493
 21
238.0598762067942
 31
0.0
  0
LINE
  5
117
  8
0
 62
     0
 10
113.2185252179493
 20
235.5598762067942
 30
0.0
 11
113.2185252179493
 21
240.5598762067942
 31
0.0
  0
POINT
  5
118
  8
DEFPOINTS
 62
     0
 10
105.029571225295
 20
228.6157757993339
 30
0.0
  0
POINT
  5
119
  8
DEFPOINTS
 62
     0
 10
121.4074792106035
 20
247.5039766142546
 30
0.0
  0
ENDBLK
  5
11B
  8
0
  0
BLOCK
  8
0
  2
*D15
 70
     1
 10
0.0
 20
0.0
 30
0.0
  3
*D15
  1

  0
LINE
  5
11E
  8
0
 62
     0
 10
34.60462207447529
 20
101.0930805811549
 30
0.0
 11
34.60462207447529
 21
117.7244105644038
 31
0.0
  0
LINE
  5
11F
  8
0
 62
     0
 10
42.60462207447523
 20
62.79308058115487
 30
0.0
 11
42.60462207447523
 21
117.7244105644038
 31
0.0
  0
LINE
  5
120
  8
0
 62
     0
 10
32.10462207447529
 20
116.4744105644038
 30
0.0
 11
15.97231103723763
 21
116.4744105644038
 31
0.0
  0
LINE
  5
121
  8
0
 62
     0
 10
45.10462207447523
 20
116.4744105644038
 30
0.0
 11
61.23693311171289
 21
116.4744105644038
 31
0.0
  0
SOLID
  5
122
  8
0
 62
     0
 10
32.10462207447529
 20
116.0577438977371
 30
0.0
 11
32.10462207447529
 21
116.8910772310705
 31
0.0
 12
34.60462207447529
 22
116.4744105644038
 32
0.0
 13
34.60462207447529
 23
116.4744105644038
 33
0.0
  0
SOLID
  5
123
  8
0
 62
     0
 10
45.10462207447523
 20
116.8910772310705
 30
0.0
 11
45.10462207447523
 21
116.0577438977371
 31
0.0
 12
42.60462207447523
 22
116.4744105644038
 32
0.0
 13
42.60462207447523
 23
116.4744105644038
 33
0.0
  0
TEXT
  5
124
  8
0
 62
     0
 10
35.22212207447526
 20
116.6119105644038
 30
0.0
 40
2.5
  1
8.00
  7
DEFAULT
  0
POINT
  5
125
  8
DEFPOINTS
 62
     0
 10
34.60462207447529
 20
100.4680805811549
 30
0.0
  0
POINT
  5
126
  8
DEFPOINTS
 62
     0
 10
42.60462207447523
 20
62.16808058115487
 30
0.0
  0
POINT
  5
127
  8
DEFPOINTS
 62
     0
 10
42.60462207447523
 20
116.4744105644038
 30
0.0
  0
ENDBLK
  5
129
  8
0
  0
BLOCK
  8
0
  2
*D16
 70
     1
 10
0.0
 20
0.0
 30
0.0
  3
*D16
  1

  0
LINE
  5
12C
  8
0
 62
     0
 10
34.60462207447529
 20
101.0930805811549
 30
0.0
 11
34.60462207447529
 21
123.3343213888534
 31
0.0
  0
LINE
  5
12D
  8
0
 62
     0
 10
45.90462207447524
 20
96.49308058115486
 30
0.0
 11
45.90462207447524
 21
123.3343213888534
 31
0.0
  0
LINE
  5
12E
  8
0
 62
     0
 10
32.10462207447529
 20
122.0843213888534
 30
0.0
 11
15.94606103723763
 21
122.0843213888534
 31
0.0
  0
LINE
  5
12F
  8
0
 62
     0
 10
48.40462207447524
 20
122.0843213888534
 30
0.0
 11
64.5631831117129
 21
122.0843213888534
 31
0.0
  0
SOLID
  5
130
  8
0
 62
     0
 10
32.10462207447529
 20
121.6676547221867
 30
0.0
 11
32.10462207447529
 21
122.50098805552
 31
0.0
 12
34.60462207447529
 22
122.0843213888534
 32
0.0
 13
34.60462207447529
 23
122.0843213888534
 33
0.0
  0
SOLID
  5
131
  8
0
 62
     0
 10
48.40462207447524
 20
122.50098805552
 30
0.0
 11
48.40462207447524
 21
121.6676547221867
 31
0.0
 12
45.90462207447524
 22
122.0843213888534
 32
0.0
 13
45.90462207447524
 23
122.0843213888534
 33
0.0
  0
TEXT
  5
132
  8
0
 62
     0
 10
35.78337207447526
 20
122.2218213888534
 30
0.0
 40
2.5
  1
11.30
  7
DEFAULT
  0
POINT
  5
133
  8
DEFPOINTS
 62
     0
 10
34.60462207447529
 20
100.4680805811549
 30
0.0
  0
POINT
  5
134
  8
DEFPOINTS
 62
     0
 10
45.90462207447524
 20
95.86808058115486
 30
0.0
  0
POINT
  5
135
  8
DEFPOINTS
 62
     0
 10
45.90462207447524
 20
122.0843213888534
 30
0.0
  0
ENDBLK
  5
137
  8
0
  0
BLOCK
  8
0
  2
*D17
 70
     1
 10
0.0
 20
0.0
 30
0.0
  3
*D17
  1

  0
LINE
  5
13A
  8
0
 62
     0
 10
34.60462207447529
 20
101.0930805811549
 30
0.0
 11
34.60462207447529
 21
131.0190783210981
 31
0.0
  0
LINE
  5
13B
  8
0
 62
     0
 10
69.60462207447523
 20
72.79308058115487
 30
0.0
 11
69.60462207447523
 21
131.0190783210981
 31
0.0
  0
LINE
  5
13C
  8
0
 62
     0
 10
32.10462207447529
 20
129.7690783210981
 30
0.0
 11
21.75481103723763
 21
129.7690783210981
 31
0.0
  0
LINE
  5
13D
  8
0
 62
     0
 10
72.10462207447523
 20
129.7690783210981
 30
0.0
 11
82.45443311171289
 21
129.7690783210981
 31
0.0
  0
SOLID
  5
13E
  8
0
 62
     0
 10
32.10462207447529
 20
129.3524116544314
 30
0.0
 11
32.10462207447529
 21
130.1857449877647
 31
0.0
 12
34.60462207447529
 22
129.7690783210981
 32
0.0
 13
34.60462207447529
 23
129.7690783210981
 33
0.0
  0
SOLID
  5
13F
  8
0
 62
     0
 10
72.10462207447523
 20
130.1857449877647
 30
0.0
 11
72.10462207447523
 21
129.3524116544314
 31
0.0
 12
69.60462207447523
 22
129.7690783210981
 32
0.0
 13
69.60462207447523
 23
129.7690783210981
 33
0.0
  0
TEXT
  5
140
  8
0
 62
     0
 10
47.74962207447526
 20
129.9065783210981
 30
0.0
 40
2.5
  1
35.00
  7
DEFAULT
  0
POINT
  5
141
  8
DEFPOINTS
 62
     0
 10
34.60462207447529
 20
100.4680805811549
 30
0.0
  0
POINT
  5
142
  8
DEFPOINTS
 62
     0
 10
69.60462207447523
 20
72.16808058115487
 30
0.0
  0
POINT
  5
143
  8
DEFPOINTS
 62
     0
 10
69.60462207447523
 20
129.7690783210981
 30
0.0
  0
ENDBLK
  5
145
  8
0
  0
BLOCK
  8
0
  2
*D18
 70
     1
 10
0.0
 20
0.0
 30
0.0
  3
*D18
  1

  0
LINE
  5
148
  8
0
 62
     0
 10
34.60462207447529
 20
101.0930805811549
 30
0.0
 11
34.60462207447529
 21
137.4331418035461
 31
0.0
  0
LINE
  5
149
  8
0
 62
     0
 10
93.30462207447522
 20
96.49308058115486
 30
0.0
 11
93.30462207447522
 21
137.4331418035461
 31
0.0
  0
LINE
  5
14A
  8
0
 62
     0
 10
32.10462207447529
 20
136.1831418035461
 30
0.0
 11
27.67856103723763
 21
136.1831418035461
 31
0.0
  0
LINE
  5
14B
  8
0
 62
     0
 10
95.80462207447522
 20
136.1831418035461
 30
0.0
 11
100.2306831117129
 21
136.1831418035461
 31
0.0
  0
SOLID
  5
14C
  8
0
 62
     0
 10
32.10462207447529
 20
135.7664751368794
 30
0.0
 11
32.10462207447529
 21
136.5998084702127
 31
0.0
 12
34.60462207447529
 22
136.1831418035461
 32
0.0
 13
34.60462207447529
 23
136.1831418035461
 33
0.0
  0
SOLID
  5
14D
  8
0
 62
     0
 10
95.80462207447522
 20
136.5998084702127
 30
0.0
 11
95.80462207447522
 21
135.7664751368794
 31
0.0
 12
93.30462207447522
 22
136.1831418035461
 32
0.0
 13
93.30462207447522
 23
136.1831418035461
 33
0.0
  0
TEXT
  5
14E
  8
0
 62
     0
 10
59.60087207447525
 20
136.3206418035461
 30
0.0
 40
2.5
  1
58.70
  7
DEFAULT
  0
POINT
  5
14F
  8
DEFPOINTS
 62
     0
 10
34.60462207447529
 20
100.4680805811549
 30
0.0
  0
POINT
  5
150
  8
DEFPOINTS
 62
     0
 10
93.30462207447522
 20
95.86808058115486
 30
0.0
  0
POINT
  5
151
  8
DEFPOINTS
 62
     0
 10
93.30462207447522
 20
136.1831418035461
 30
0.0
  0
ENDBLK
  5
153
  8
0
  0
BLOCK
  8
0
  2
*D19
 70
     1
 10
0.0
 20
0.0
 30
0.0
  3
*D19
  1

  0
LINE
  5
156
  8
0
 62
     0
 10
34.60462207447529
 20
101.0930805811549
 30
0.0
 11
34.60462207447528
 21
148.0495227756342
 31
0.0
  0
LINE
  5
157
  8
0
 62
     0
 10
96.60462207447523
 20
62.79308058115487
 30
0.0
 11
96.60462207447523
 21
148.0495227756342
 31
0.0
  0
LINE
  5
158
  8
0
 62
     0
 10
32.10462207447528
 20
146.7995227756342
 30
0.0
 11
28.49606103723762
 21
146.7995227756342
 31
0.0
  0
LINE
  5
159
  8
0
 62
     0
 10
99.10462207447523
 20
146.7995227756342
 30
0.0
 11
102.7131831117129
 21
146.7995227756342
 31
0.0
  0
SOLID
  5
15A
  8
0
 62
     0
 10
32.10462207447528
 20
146.3828561089675
 30
0.0
 11
32.10462207447528
 21
147.2161894423008
 31
0.0
 12
34.60462207447528
 22
146.7995227756342
 32
0.0
 13
34.60462207447528
 23
146.7995227756342
 33
0.0
  0
SOLID
  5
15B
  8
0
 62
     0
 10
99.10462207447523
 20
147.2161894423008
 30
0.0
 11
99.10462207447523
 21
146.3828561089675
 31
0.0
 12
96.60462207447523
 22
146.7995227756342
 32
0.0
 13
96.60462207447523
 23
146.7995227756342
 33
0.0
  0
TEXT
  5
15C
  8
0
 62
     0
 10
61.25837207447525
 20
146.9370227756342
 30
0.0
 40
2.5
  1
62.00
  7
DEFAULT
  0
POINT
  5
15D
  8
DEFPOINTS
 62
     0
 10
34.60462207447529
 20
100.4680805811549
 30
0.0
  0
POINT
  5
15E
  8
DEFPOINTS
 62
     0
 10
96.60462207447523
 20
62.16808058115487
 30
0.0
  0
POINT
  5
15F
  8
DEFPOINTS
 62
     0
 10
96.60462207447523
 20
146.7995227756342
 30
0.0
  0
ENDBLK
  5
161
  8
0
  0
BLOCK
  8
0
  2
*D20
 70
     1
 10
0.0
 20
0.0
 30
0.0
  3
*D20
  1

  0
LINE
  5
164
  8
0
 62
     0
 10
34.60462207447529
 20
101.0930805811549
 30
0.0
 11
34.60462207447529
 21
155.3482852750312
 31
0.0
  0
LINE
  5
165
  8
0
 62
     0
 10
104.604622074475
 20
101.0930805811549
 30
0.0
 11
104.604622074475
 21
155.3482852750312
 31
0.0
  0
LINE
  5
166
  8
0
 62
     0
 10
32.10462207447529
 20
154.0982852750312
 30
0.0
 11
30.51356103723757
 21
154.0982852750312
 31
0.0
  0
LINE
  5
167
  8
0
 62
     0
 10
107.104622074475
 20
154.0982852750312
 30
0.0
 11
108.6956831117127
 21
154.0982852750312
 31
0.0
  0
SOLID
  5
168
  8
0
 62
     0
 10
32.10462207447529
 20
153.6816186083646
 30
0.0
 11
32.10462207447529
 21
154.5149519416979
 31
0.0
 12
34.60462207447529
 22
154.0982852750312
 32
0.0
 13
34.60462207447529
 23
154.0982852750312
 33
0.0
  0
SOLID
  5
169
  8
0
 62
     0
 10
107.104622074475
 20
154.5149519416979
 30
0.0
 11
107.104622074475
 21
153.6816186083646
 31
0.0
 12
104.604622074475
 22
154.0982852750312
 32
0.0
 13
104.604622074475
 23
154.0982852750312
 33
0.0
  0
TEXT
  5
16A
  8
0
 62
     0
 10
65.24087207447514
 20
154.2357852750313
 30
0.0
 40
2.5
  1
70.00
  7
DEFAULT
  0
POINT
  5
16B
  8
DEFPOINTS
 62
     0
 10
34.60462207447529
 20
100.4680805811549
 30
0.0
  0
POINT
  5
16C
  8
DEFPOINTS
 62
     0
 10
104.604622074475
 20
100.4680805811549
 30
0.0
  0
POINT
  5
16D
  8
DEFPOINTS
 62
     0
 10
104.604622074475
 20
154.0982852750312
 30
0.0
  0
ENDBLK
  5
16F
  8
0
  0
BLOCK
  8
0
  2
*D21
 70
     1
 10
0.0
 20
0.0
 30
0.0
  3
*D21
  1

  0
LINE
  5
172
  8
0
 62
     0
 10
105.229622074475
 20
100.4680805811549
 30
0.0
 11
117.0160123884289
 21
100.4680805811549
 31
0.0
  0
LINE
  5
173
  8
0
 62
     0
 10
93.92962207447522
 20
95.86808058115486
 30
0.0
 11
117.0160123884289
 21
95.86808058115486
 31
0.0
  0
LINE
  5
174
  8
0
 62
     0
 10
115.766012388429
 20
102.9680805811549
 30
0.0
 11
115.766012388429
 21
105.4680805811549
 31
0.0
  0
LINE
  5
175
  8
0
 62
     0
 10
115.7660123884289
 20
93.36808058115483
 30
0.0
 11
115.7660123884285
 21
-30.28918180727411
 31
0.0
  0
SOLID
  5
176
  8
0
 62
     0
 10
115.3493457217623
 20
102.9680805811549
 30
0.0
 11
116.1826790550956
 21
102.9680805811549
 31
0.0
 12
115.7660123884289
 22
100.4680805811549
 32
0.0
 13
115.7660123884289
 23
100.4680805811549
 33
0.0
  0
SOLID
  5
177
  8
0
 62
     0
 10
116.1826790550956
 20
93.36808058115483
 30
0.0
 11
115.3493457217623
 21
93.36808058115483
 31
0.0
 12
115.7660123884289
 22
95.86808058115483
 32
0.0
 13
115.7660123884289
 23
95.86808058115483
 33
0.0
  0
TEXT
  5
178
  8
0
 62
     0
 10
66.54447209785128
 20
26.95569938694052
 30
0.0
 40
2.5
  1
4.60
 50
90.0
  7
DEFAULT
  0
POINT
  5
179
  8
DEFPOINTS
 62
     0
 10
104.604622074475
 20
100.4680805811549
 30
0.0
  0
POINT
  5
17A
  8
DEFPOINTS
 62
     0
 10
93.30462207447522
 20
95.86808058115486
 30
0.0
  0
POINT
  5
17B
  8
DEFPOINTS
 62
     0
 10
115.7660123884289
 20
95.86808058115486
 30
0.0
  0
ENDBLK
  5
17D
  8
0
  0
BLOCK
  8
0
  2
*D22
 70
     1
 10
0.0
 20
0.0
 30
0.0
  3
*D22
  1

  0
LINE
  5
180
  8
0
 62
     0
 10
105.229622074475
 20
100.4680805811549
 30
0.0
 11
129.1794900295493
 21
100.4680805811549
 31
0.0
  0
LINE
  5
181
  8
0
 62
     0
 10
70.22962207447523
 20
72.79308058115487
 30
0.0
 11
129.1794900295493
 21
72.79308058115487
 31
0.0
  0
LINE
  5
182
  8
0
 62
     0
 10
127.9294900295493
 20
102.9680805811549
 30
0.0
 11
127.9294900295493
 21
154.2397005959295
 31
0.0
  0
LINE
  5
183
  8
0
 62
     0
 10
127.9294900295493
 20
70.29308058115487
 30
0.0
 11
127.9294900295493
 21
19.02146056638023
 31
0.0
  0
SOLID
  5
184
  8
0
 62
     0
 10
127.5128233628826
 20
102.9680805811549
 30
0.0
 11
128.346156696216
 21
102.9680805811549
 31
0.0
 12
127.9294900295493
 22
100.4680805811549
 32
0.0
 13
127.9294900295493
 23
100.4680805811549
 33
0.0
  0
SOLID
  5
185
  8
0
 62
     0
 10
128.346156696216
 20
70.29308058115487
 30
0.0
 11
127.5128233628826
 21
70.29308058115487
 31
0.0
 12
127.9294900295493
 22
72.79308058115487
 32
0.0
 13
127.9294900295493
 23
72.79308058115487
 33
0.0
  0
TEXT
  5
186
  8
0
 62
     0
 10
127.7919900295493
 20
82.29058058115487
 30
0.0
 40
2.5
  1
27.68
 50
90.0
  7
DEFAULT
  0
POINT
  5
187
  8
DEFPOINTS
 62
     0
 10
104.604622074475
 20
100.4680805811549
 30
0.0
  0
POINT
  5
188
  8
DEFPOINTS
 62
     0
 10
69.60462207447523
 20
72.79308058115487
 30
0.0
  0
POINT
  5
189
  8
DEFPOINTS
 62
     0
 10
127.9294900295493
 20
72.79308058115487
 30
0.0
  0
ENDBLK
  5
18B
  8
0
  0
BLOCK
  8
0
  2
*D23
 70
     1
 10
0.0
 20
0.0
 30
0.0
  3
*D23
  1

  0
LINE
  5
18E
  8
0
 62
     0
 10
105.229622074475
 20
100.4680805811549
 30
0.0
 11
136.2251334173173
 21
100.4680805811549
 31
0.0
  0
LINE
  5
18F
  8
0
 62
     0
 10
97.22962207447523
 20
62.16808058115487
 30
0.0
 11
136.2251334173173
 21
62.16808058115487
 31
0.0
  0
LINE
  5
190
  8
0
 62
     0
 10
134.9751334173173
 20
102.9680805811549
 30
0.0
 11
134.9751334173173
 21
152.4200222898135
 31
0.0
  0
LINE
  5
191
  8
0
 62
     0
 10
134.9751334173173
 20
59.66808058115486
 30
0.0
 11
134.9751334173173
 21
10.21613887249623
 31
0.0
  0
SOLID
  5
192
  8
0
 62
     0
 10
134.5584667506506
 20
102.9680805811549
 30
0.0
 11
135.391800083984
 21
102.9680805811549
 31
0.0
 12
134.9751334173173
 22
100.4680805811549
 32
0.0
 13
134.9751334173173
 23
100.4680805811549
 33
0.0
  0
SOLID
  5
193
  8
0
 62
     0
 10
135.391800083984
 20
59.66808058115486
 30
0.0
 11
134.5584667506506
 21
59.66808058115486
 31
0.0
 12
134.9751334173173
 22
62.16808058115486
 32
0.0
 13
134.9751334173173
 23
62.16808058115486
 33
0.0
  0
TEXT
  5
194
  8
0
 62
     0
 10
134.8376334173173
 20
76.96308058115486
 30
0.0
 40
2.5
  1
38.30
 50
90.0
  7
DEFAULT
  0
POINT
  5
195
  8
DEFPOINTS
 62
     0
 10
104.604622074475
 20
100.4680805811549
 30
0.0
  0
POINT
  5
196
  8
DEFPOINTS
 62
     0
 10
96.60462207447523
 20
62.16808058115487
 30
0.0
  0
POINT
  5
197
  8
DEFPOINTS
 62
     0
 10
134.9751334173173
 20
62.16808058115487
 30
0.0
  0
ENDBLK
  5
199
  8
0
  0
BLOCK
  8
0
  2
*D24
 70
     1
 10
0.0
 20
0.0
 30
0.0
  3
*D24
  1

  0
LINE
  5
19C
  8
0
 62
     0
 10
105.229622074475
 20
100.4680805811549
 30
0.0
 11
146.5695679662989
 21
100.4680805811549
 31
0.0
  0
LINE
  5
19D
  8
0
 62
     0
 10
93.92962207447522
 20
48.46808058115488
 30
0.0
 11
146.5695679662989
 21
48.46808058115488
 31
0.0
  0
LINE
  5
19E
  8
0
 62
     0
 10
145.3195679662989
 20
102.9680805811549
 30
0.0
 11
145.3195679662989
 21
150.7434895643043
 31
0.0
  0
LINE
  5
19F
  8
0
 62
     0
 10
145.3195679662989
 20
45.96808058115488
 30
0.0
 11
145.3195679662989
 21
-1.807328401994553
 31
0.0
  0
SOLID
  5
1A0
  8
0
 62
     0
 10
144.9029012996322
 20
102.9680805811549
 30
0.0
 11
145.7362346329655
 21
102.9680805811549
 31
0.0
 12
145.3195679662989
 22
100.4680805811549
 32
0.0
 13
145.3195679662989
 23
100.4680805811549
 33
0.0
  0
SOLID
  5
1A1
  8
0
 62
     0
 10
145.7362346329655
 20
45.96808058115488
 30
0.0
 11
144.9029012996322
 21
45.96808058115488
 31
0.0
 12
145.3195679662989
 22
48.46808058115488
 32
0.0
 13
145.3195679662989
 23
48.46808058115488
 33
0.0
  0
TEXT
  5
1A2
  8
0
 62
     0
 10
145.1820679662989
 20
70.11433058115486
 30
0.0
 40
2.5
  1
52.00
 50
90.0
  7
DEFAULT
  0
POINT
  5
1A3
  8
DEFPOINTS
 62
     0
 10
104.604622074475
 20
100.4680805811549
 30
0.0
  0
POINT
  5
1A4
  8
DEFPOINTS
 62
     0
 10
93.30462207447522
 20
48.46808058115488
 30
0.0
  0
POINT
  5
1A5
  8
DEFPOINTS
 62
     0
 10
145.3195679662989
 20
48.46808058115488
 30
0.0
  0
ENDBLK
  5
1A7
  8
0
  0
BLOCK
  8
0
  2
*D25
 70
     1
 10
0.0
 20
0.0
 30
0.0
  3
*D25
  1

  0
LINE
  5
1AA
  8
0
 62
     0
 10
105.229622074475
 20
100.4680805811549
 30
0.0
 11
159.1231296028221
 21
100.4680805811549
 31
0.0
  0
LINE
  5
1AB
  8
0
 62
     0
 10
105.2296220744751
 20
43.86808058115483
 30
0.0
 11
159.1231296028221
 21
43.86808058115483
 31
0.0
  0
LINE
  5
1AC
  8
0
 62
     0
 10
157.8731296028221
 20
102.9680805811549
 30
0.0
 11
157.8731296028221
 21
154.7202703825659
 31
0.0
  0
LINE
  5
1AD
  8
0
 62
     0
 10
157.8731296028221
 20
41.36808058115481
 30
0.0
 11
157.8731296028221
 21
-10.38410922025619
 31
0.0
  0
SOLID
  5
1AE
  8
0
 62
     0
 10
157.4564629361554
 20
102.9680805811549
 30
0.0
 11
158.2897962694887
 21
102.9680805811549
 31
0.0
 12
157.8731296028221
 22
100.4680805811549
 32
0.0
 13
157.8731296028221
 23
100.4680805811549
 33
0.0
  0
SOLID
  5
1AF
  8
0
 62
     0
 10
158.2897962694887
 20
41.36808058115481
 30
0.0
 11
157.4564629361554
 21
41.36808058115481
 31
0.0
 12
157.8731296028221
 22
43.86808058115481
 32
0.0
 13
157.8731296028221
 23
43.86808058115481
 33
0.0
  0
TEXT
  5
1B0
  8
0
 62
     0
 10
157.7356296028221
 20
67.81433058115483
 30
0.0
 40
2.5
  1
56.60
 50
90.0
  7
DEFAULT
  0
POINT
  5
1B1
  8
DEFPOINTS
 62
     0
 10
104.604622074475
 20
100.4680805811549
 30
0.0
  0
POINT
  5
1B2
  8
DEFPOINTS
 62
     0
 10
104.6046220744751
 20
43.86808058115483
 30
0.0
  0
POINT
  5
1B3
  8
DEFPOINTS
 62
     0
 10
157.8731296028221
 20
43.86808058115483
 30
0.0
  0
ENDBLK
  5
1B5
  8
0
  0
BLOCK
  8
0
  2
*D26
 70
     1
 10
0.0
 20
0.0
 30
0.0
  3
*D26
  1

  0
LINE
  5
1B8
  8
0
 62
     0
 10
55.77902687385094
 20
36.55644738481028
 30
0.0
 11
61.73297662796288
 21
51.89248692857819
 31
0.0
  0
LINE
  5
1B9
  8
0
 62
     0
 10
77.47626752098736
 20
92.44367423373149
 30
0.0
 11
78.38105435391981
 21
94.77420223977477
 31
0.0
  0
TEXT
  5
1BA
  8
0
 62
     0
 10
51.44589151193907
 20
26.04458650362712
 30
0.0
 40
2.5
  1
\U+220538.50
 50
68.78216700645312
  7
DEFAULT
  0
SOLID
  5
1BB
  8
0
 62
     0
 10
62.12139796230343
 20
51.74168912308944
 30
0.0
 11
61.34455529362233
 21
52.04328473406693
 31
0.0
 12
62.63776346089531
 22
54.22301493462147
 32
0.0
 13
62.63776346089531
 23
54.22301493462147
 33
0.0
  0
SOLID
  5
1BC
  8
0
 62
     0
 10
77.08784618664681
 20
92.59447203922022
 30
0.0
 11
77.86468885532791
 21
92.29287642824275
 31
0.0
 12
76.57148068805492
 22
90.11314622768821
 32
0.0
 13
76.57148068805492
 23
90.11314622768821
 33
0.0
  0
LINE
  5
1BD
  8
0
 62
     0
 10
67.10462207447512
 20
72.16808058115484
 30
0.0
 11
72.10462207447512
 21
72.16808058115484
 31
0.0
  0
LINE
  5
1BE
  8
0
 62
     0
 10
69.60462207447512
 20
69.66808058115484
 30
0.0
 11
69.60462207447512
 21
74.66808058115484
 31
0.0
  0
POINT
  5
1BF
  8
DEFPOINTS
 62
     0
 10
62.63776346089531
 20
54.22301493462147
 30
0.0
  0
POINT
  5
1C0
  8
DEFPOINTS
 62
     0
 10
76.57148068805492
 20
90.11314622768821
 30
0.0
  0
ENDBLK
  5
1C2
  8
0
  0
BLOCK
  8
0
  2
*D27
 70
     1
 10
0.0
 20
0.0
 30
0.0
  3
*D27
  1

  0
LINE
  5
1C5
  8
0
 62
     0
 10
181.2506656842823
 20
97.19423420138372
 30
0.0
 11
181.2506656842823
 21
30.07993789369971
 31
0.0
  0
LINE
  5
1C6
  8
0
 62
     0
 10
189.2506656842823
 20
58.89423420138371
 30
0.0
 11
189.2506656842823
 21
30.07993789369971
 31
0.0
  0
LINE
  5
1C7
  8
0
 62
     0
 10
178.7506656842823
 20
31.32993789369971
 30
0.0
 11
89.29533284214114
 21
31.32993789369971
 31
0.0
  0
LINE
  5
1C8
  8
0
 62
     0
 10
191.7506656842823
 20
31.32993789369971
 30
0.0
 11
281.2059985264235
 21
31.32993789369971
 31
0.0
  0
SOLID
  5
1C9
  8
0
 62
     0
 10
178.7506656842823
 20
30.91327122703304
 30
0.0
 11
178.7506656842823
 21
31.74660456036638
 31
0.0
 12
181.2506656842823
 22
31.32993789369971
 32
0.0
 13
181.2506656842823
 23
31.32993789369971
 33
0.0
  0
SOLID
  5
1CA
  8
0
 62
     0
 10
191.7506656842823
 20
31.74660456036638
 30
0.0
 11
191.7506656842823
 21
30.91327122703304
 31
0.0
 12
189.2506656842823
 22
31.32993789369971
 32
0.0
 13
189.2506656842823
 23
31.32993789369971
 33
0.0
  0
TEXT
  5
1CB
  8
0
 62
     0
 10
181.8681656842823
 20
31.4674378936997
 30
0.0
 40
2.5
  1
8.00
  7
DEFAULT
  0
POINT
  5
1CC
  8
DEFPOINTS
 62
     0
 10
181.2506656842823
 20
97.81923420138372
 30
0.0
  0
POINT
  5
1CD
  8
DEFPOINTS
 62
     0
 10
189.2506656842823
 20
59.51923420138371
 30
0.0
  0
POINT
  5
1CE
  8
DEFPOINTS
 62
     0
 10
189.2506656842823
 20
31.32993789369971
 30
0.0
  0
ENDBLK
  5
1D0
  8
0
  0
BLOCK
  8
0
  2
*D28
 70
     1
 10
0.0
 20
0.0
 30
0.0
  3
*D28
  1

  0
LINE
  5
1D3
  8
0
 62
     0
 10
181.2506656842823
 20
98.44423420138372
 30
0.0
 11
181.2506656842823
 21
107.1175529674905
 31
0.0
  0
LINE
  5
1D4
  8
0
 62
     0
 10
197.2506656842823
 20
76.14423420138371
 30
0.0
 11
197.2506656842823
 21
107.1175529674905
 31
0.0
  0
LINE
  5
1D5
  8
0
 62
     0
 10
178.7506656842823
 20
105.8675529674905
 30
0.0
 11
90.44408284214114
 21
105.8675529674905
 31
0.0
  0
LINE
  5
1D6
  8
0
 62
     0
 10
199.7506656842823
 20
105.8675529674905
 30
0.0
 11
288.0572485264235
 21
105.8675529674905
 31
0.0
  0
SOLID
  5
1D7
  8
0
 62
     0
 10
178.7506656842823
 20
105.4508863008238
 30
0.0
 11
178.7506656842823
 21
106.2842196341572
 31
0.0
 12
181.2506656842823
 22
105.8675529674905
 32
0.0
 13
181.2506656842823
 23
105.8675529674905
 33
0.0
  0
SOLID
  5
1D8
  8
0
 62
     0
 10
199.7506656842823
 20
106.2842196341572
 30
0.0
 11
199.7506656842823
 21
105.4508863008238
 31
0.0
 12
197.2506656842823
 22
105.8675529674905
 32
0.0
 13
197.2506656842823
 23
105.8675529674905
 33
0.0
  0
TEXT
  5
1D9
  8
0
 62
     0
 10
184.7794156842823
 20
106.0050529674905
 30
0.0
 40
2.5
  1
16.00
  7
DEFAULT
  0
POINT
  5
1DA
  8
DEFPOINTS
 62
     0
 10
181.2506656842823
 20
97.81923420138372
 30
0.0
  0
POINT
  5
1DB
  8
DEFPOINTS
 62
     0
 10
197.2506656842823
 20
75.51923420138371
 30
0.0
  0
POINT
  5
1DC
  8
DEFPOINTS
 62
     0
 10
197.2506656842823
 20
105.8675529674905
 30
0.0
  0
ENDBLK
  5
1DE
  8
0
  0
BLOCK
  8
0
  2
*D29
 70
     1
 10
0.0
 20
0.0
 30
0.0
  3
*D29
  1

  0
LINE
  5
1E1
  8
0
 62
     0
 10
181.2506656842823
 20
98.44423420138372
 30
0.0
 11
181.2506656842823
 21
111.2779195774515
 31
0.0
  0
LINE
  5
1E2
  8
0
 62
     0
 10
216.2506656842823
 20
70.14423420138371
 30
0.0
 11
216.2506656842823
 21
111.2779195774515
 31
0.0
  0
LINE
  5
1E3
  8
0
 62
     0
 10
178.7506656842823
 20
110.0279195774515
 30
0.0
 11
95.07783284214114
 21
110.0279195774515
 31
0.0
  0
LINE
  5
1E4
  8
0
 62
     0
 10
218.7506656842823
 20
110.0279195774515
 30
0.0
 11
302.4234985264235
 21
110.0279195774515
 31
0.0
  0
SOLID
  5
1E5
  8
0
 62
     0
 10
178.7506656842823
 20
109.6112529107848
 30
0.0
 11
178.7506656842823
 21
110.4445862441182
 31
0.0
 12
181.2506656842823
 22
110.0279195774515
 32
0.0
 13
181.2506656842823
 23
110.0279195774515
 33
0.0
  0
SOLID
  5
1E6
  8
0
 62
     0
 10
218.7506656842823
 20
110.4445862441182
 30
0.0
 11
218.7506656842823
 21
109.6112529107848
 31
0.0
 12
216.2506656842823
 22
110.0279195774515
 32
0.0
 13
216.2506656842823
 23
110.0279195774515
 33
0.0
  0
TEXT
  5
1E7
  8
0
 62
     0
 10
194.3956656842823
 20
110.1654195774515
 30
0.0
 40
2.5
  1
35.00
  7
DEFAULT
  0
POINT
  5
1E8
  8
DEFPOINTS
 62
     0
 10
181.2506656842823
 20
97.81923420138372
 30
0.0
  0
POINT
  5
1E9
  8
DEFPOINTS
 62
     0
 10
216.2506656842823
 20
69.51923420138371
 30
0.0
  0
POINT
  5
1EA
  8
DEFPOINTS
 62
     0
 10
216.2506656842823
 20
110.0279195774515
 30
0.0
  0
ENDBLK
  5
1EC
  8
0
  0
BLOCK
  8
0
  2
*D30
 70
     1
 10
0.0
 20
0.0
 30
0.0
  3
*D30
  1

  0
LINE
  5
1EF
  8
0
 62
     0
 10
181.2506656842823
 20
98.44423420138372
 30
0.0
 11
181.2506656842823
 21
116.9159043771585
 31
0.0
  0
LINE
  5
1F0
  8
0
 62
     0
 10
235.2506656842823
 20
76.14423420138371
 30
0.0
 11
235.2506656842823
 21
116.9159043771585
 31
0.0
  0
LINE
  5
1F1
  8
0
 62
     0
 10
178.7506656842823
 20
115.6659043771585
 30
0.0
 11
99.82658284214114
 21
115.6659043771585
 31
0.0
  0
LINE
  5
1F2
  8
0
 62
     0
 10
237.7506656842823
 20
115.6659043771585
 30
0.0
 11
316.6747485264235
 21
115.6659043771585
 31
0.0
  0
SOLID
  5
1F3
  8
0
 62
     0
 10
178.7506656842823
 20
115.2492377104919
 30
0.0
 11
178.7506656842823
 21
116.0825710438252
 31
0.0
 12
181.2506656842823
 22
115.6659043771585
 32
0.0
 13
181.2506656842823
 23
115.6659043771585
 33
0.0
  0
SOLID
  5
1F4
  8
0
 62
     0
 10
237.7506656842823
 20
116.0825710438252
 30
0.0
 11
237.7506656842823
 21
115.2492377104919
 31
0.0
 12
235.2506656842823
 22
115.6659043771585
 32
0.0
 13
235.2506656842823
 23
115.6659043771585
 33
0.0
  0
TEXT
  5
1F5
  8
0
 62
     0
 10
203.8969156842823
 20
115.8034043771585
 30
0.0
 40
2.5
  1
54.00
  7
DEFAULT
  0
POINT
  5
1F6
  8
DEFPOINTS
 62
     0
 10
181.2506656842823
 20
97.81923420138372
 30
0.0
  0
POINT
  5
1F7
  8
DEFPOINTS
 62
     0
 10
235.2506656842823
 20
75.51923420138371
 30
0.0
  0
POINT
  5
1F8
  8
DEFPOINTS
 62
     0
 10
235.2506656842823
 20
115.6659043771585
 30
0.0
  0
ENDBLK
  5
1FA
  8
0
  0
BLOCK
  8
0
  2
*D31
 70
     1
 10
0.0
 20
0.0
 30
0.0
  3
*D31
  1

  0
LINE
  5
1FD
  8
0
 62
     0
 10
181.2506656842823
 20
98.44423420138372
 30
0.0
 11
181.2506656842823
 21
125.8629282278419
 31
0.0
  0
LINE
  5
1FE
  8
0
 62
     0
 10
239.9506656842823
 20
93.8442342013837
 30
0.0
 11
239.9506656842823
 21
125.8629282278419
 31
0.0
  0
LINE
  5
1FF
  8
0
 62
     0
 10
178.7506656842823
 20
124.6129282278419
 30
0.0
 11
101.0015828421412
 21
124.6129282278419
 31
0.0
  0
LINE
  5
200
  8
0
 62
     0
 10
242.4506656842823
 20
124.6129282278419
 30
0.0
 11
320.1997485264235
 21
124.6129282278419
 31
0.0
  0
SOLID
  5
201
  8
0
 62
     0
 10
178.7506656842823
 20
124.1962615611752
 30
0.0
 11
178.7506656842823
 21
125.0295948945085
 31
0.0
 12
181.2506656842823
 22
124.6129282278419
 32
0.0
 13
181.2506656842823
 23
124.6129282278419
 33
0.0
  0
SOLID
  5
202
  8
0
 62
     0
 10
242.4506656842823
 20
125.0295948945085
 30
0.0
 11
242.4506656842823
 21
124.1962615611752
 31
0.0
 12
239.9506656842823
 22
124.6129282278419
 32
0.0
 13
239.9506656842823
 23
124.6129282278419
 33
0.0
  0
TEXT
  5
203
  8
0
 62
     0
 10
206.2469156842823
 20
124.7504282278418
 30
0.0
 40
2.5
  1
58.70
  7
DEFAULT
  0
POINT
  5
204
  8
DEFPOINTS
 62
     0
 10
181.2506656842823
 20
97.81923420138372
 30
0.0
  0
POINT
  5
205
  8
DEFPOINTS
 62
     0
 10
239.9506656842823
 20
93.2192342013837
 30
0.0
  0
POINT
  5
206
  8
DEFPOINTS
 62
     0
 10
239.9506656842823
 20
124.6129282278419
 30
0.0
  0
ENDBLK
  5
208
  8
0
  0
BLOCK
  8
0
  2
*D32
 70
     1
 10
0.0
 20
0.0
 30
0.0
  3
*D32
  1

  0
LINE
  5
20B
  8
0
 62
     0
 10
181.2506656842823
 20
98.44423420138372
 30
0.0
 11
181.2506656842823
 21
136.2486895922452
 31
0.0
  0
LINE
  5
20C
  8
0
 62
     0
 10
243.2506656842823
 20
60.14423420138371
 30
0.0
 11
243.2506656842823
 21
136.2486895922452
 31
0.0
  0
LINE
  5
20D
  8
0
 62
     0
 10
178.7506656842823
 20
134.9986895922452
 30
0.0
 11
101.8190828421411
 21
134.9986895922452
 31
0.0
  0
LINE
  5
20E
  8
0
 62
     0
 10
245.7506656842823
 20
134.9986895922452
 30
0.0
 11
322.6822485264235
 21
134.9986895922452
 31
0.0
  0
SOLID
  5
20F
  8
0
 62
     0
 10
178.7506656842823
 20
134.5820229255786
 30
0.0
 11
178.7506656842823
 21
135.4153562589119
 31
0.0
 12
181.2506656842823
 22
134.9986895922452
 32
0.0
 13
181.2506656842823
 23
134.9986895922452
 33
0.0
  0
SOLID
  5
210
  8
0
 62
     0
 10
245.7506656842823
 20
135.4153562589119
 30
0.0
 11
245.7506656842823
 21
134.5820229255786
 31
0.0
 12
243.2506656842823
 22
134.9986895922452
 32
0.0
 13
243.2506656842823
 23
134.9986895922452
 33
0.0
  0
TEXT
  5
211
  8
0
 62
     0
 10
207.9044156842823
 20
135.1361895922452
 30
0.0
 40
2.5
  1
62.00
  7
DEFAULT
  0
POINT
  5
212
  8
DEFPOINTS
 62
     0
 10
181.2506656842823
 20
97.81923420138372
 30
0.0
  0
POINT
  5
213
  8
DEFPOINTS
 62
     0
 10
243.2506656842823
 20
59.51923420138371
 30
0.0
  0
POINT
  5
214
  8
DEFPOINTS
 62
     0
 10
243.2506656842823
 20
134.9986895922452
 30
0.0
  0
ENDBLK
  5
216
  8
0
  0
BLOCK
  8
0
  2
*D33
 70
     1
 10
0.0
 20
0.0
 30
0.0
  3
*D33
  1

  0
LINE
  5
219
  8
0
 62
     0
 10
181.2506656842823
 20
98.44423420138372
 30
0.0
 11
181.2506656842823
 21
143.9638272846589
 31
0.0
  0
LINE
  5
21A
  8
0
 62
     0
 10
251.2506656842823
 20
98.44423420138372
 30
0.0
 11
251.2506656842823
 21
143.9638272846589
 31
0.0
  0
LINE
  5
21B
  8
0
 62
     0
 10
178.7506656842823
 20
142.7138272846589
 30
0.0
 11
103.8365828421412
 21
142.7138272846589
 31
0.0
  0
LINE
  5
21C
  8
0
 62
     0
 10
253.7506656842823
 20
142.7138272846589
 30
0.0
 11
328.6647485264234
 21
142.7138272846589
 31
0.0
  0
SOLID
  5
21D
  8
0
 62
     0
 10
178.7506656842823
 20
142.2971606179923
 30
0.0
 11
178.7506656842823
 21
143.1304939513256
 31
0.0
 12
181.2506656842823
 22
142.7138272846589
 32
0.0
 13
181.2506656842823
 23
142.7138272846589
 33
0.0
  0
SOLID
  5
21E
  8
0
 62
     0
 10
253.7506656842823
 20
143.1304939513256
 30
0.0
 11
253.7506656842823
 21
142.2971606179923
 31
0.0
 12
251.2506656842823
 22
142.7138272846589
 32
0.0
 13
251.2506656842823
 23
142.7138272846589
 33
0.0
  0
TEXT
  5
21F
  8
0
 62
     0
 10
211.8869156842823
 20
142.8513272846589
 30
0.0
 40
2.5
  1
70.00
  7
DEFAULT
  0
POINT
  5
220
  8
DEFPOINTS
 62
     0
 10
181.2506656842823
 20
97.81923420138372
 30
0.0
  0
POINT
  5
221
  8
DEFPOINTS
 62
     0
 10
251.2506656842823
 20
97.81923420138372
 30
0.0
  0
POINT
  5
222
  8
DEFPOINTS
 62
     0
 10
251.2506656842823
 20
142.7138272846589
 30
0.0
  0
ENDBLK
  5
224
  8
0
  0
BLOCK
  8
0
  2
*D34
 70
     1
 10
0.0
 20
0.0
 30
0.0
  3
*D34
  1

  0
LINE
  5
227
  8
0
 62
     0
 10
251.8756656842823
 20
97.81923420138372
 30
0.0
 11
267.7968955426462
 21
97.81923420138372
 31
0.0
  0
LINE
  5
228
  8
0
 62
     0
 10
240.5756656842823
 20
93.2192342013837
 30
0.0
 11
267.7968955426462
 21
93.2192342013837
 31
0.0
  0
LINE
  5
229
  8
0
 62
     0
 10
266.5468955426462
 20
100.3192342013837
 30
0.0
 11
266.5468955426462
 21
102.8192342013837
 31
0.0
  0
LINE
  5
22A
  8
0
 62
     0
 10
266.5468955426462
 20
90.7192342013837
 30
0.0
 11
266.5468955426462
 21
-183.7189113412625
 31
0.0
  0
SOLID
  5
22B
  8
0
 62
     0
 10
266.1302288759795
 20
100.3192342013837
 30
0.0
 11
266.9635622093128
 21
100.3192342013837
 31
0.0
 12
266.5468955426462
 22
97.81923420138372
 32
0.0
 13
266.5468955426462
 23
97.81923420138372
 33
0.0
  0
SOLID
  5
22C
  8
0
 62
     0
 10
266.9635622093128
 20
90.7192342013837
 30
0.0
 11
266.1302288759795
 21
90.7192342013837
 31
0.0
 12
266.5468955426462
 22
93.2192342013837
 32
0.0
 13
266.5468955426462
 23
93.2192342013837
 33
0.0
  0
TEXT
  5
22D
  8
0
 62
     0
 10
218.6497784419543
 20
-51.08358856993937
 30
0.0
 40
2.5
  1
4.60
 50
90.0
  7
DEFAULT
  0
POINT
  5
22E
  8
DEFPOINTS
 62
     0
 10
251.2506656842823
 20
97.81923420138372
 30
0.0
  0
POINT
  5
22F
  8
DEFPOINTS
 62
     0
 10
239.9506656842823
 20
93.2192342013837
 30
0.0
  0
POINT
  5
230
  8
DEFPOINTS
 62
     0
 10
266.5468955426462
 20
93.2192342013837
 30
0.0
  0
ENDBLK
  5
232
  8
0
  0
BLOCK
  8
0
  2
*D35
 70
     1
 10
0.0
 20
0.0
 30
0.0
  3
*D35
  1

  0
LINE
  5
235
  8
0
 62
     0
 10
251.8756656842823
 20
97.81923420138372
 30
0.0
 11
276.5290512494358
 21
97.81923420138372
 31
0.0
  0
LINE
  5
236
  8
0
 62
     0
 10
235.8756656842823
 20
75.51923420138371
 30
0.0
 11
276.5290512494358
 21
75.51923420138371
 31
0.0
  0
LINE
  5
237
  8
0
 62
     0
 10
275.2790512494358
 20
100.3192342013837
 30
0.0
 11
275.2790512494358
 21
227.9456348261016
 31
0.0
  0
LINE
  5
238
  8
0
 62
     0
 10
275.2790512494358
 20
73.01923420138368
 30
0.0
 11
275.2790512494358
 21
-54.60716642333418
 31
0.0
  0
SOLID
  5
239
  8
0
 62
     0
 10
274.8623845827691
 20
100.3192342013837
 30
0.0
 11
275.6957179161025
 21
100.3192342013837
 31
0.0
 12
275.2790512494358
 22
97.81923420138369
 32
0.0
 13
275.2790512494358
 23
97.81923420138369
 33
0.0
  0
SOLID
  5
23A
  8
0
 62
     0
 10
275.6957179161025
 20
73.01923420138368
 30
0.0
 11
274.8623845827691
 21
73.01923420138368
 31
0.0
 12
275.2790512494358
 22
75.51923420138368
 32
0.0
 13
275.2790512494358
 23
75.51923420138368
 33
0.0
  0
TEXT
  5
23B
  8
0
 62
     0
 10
275.1415512494358
 20
82.33673420138368
 30
0.0
 40
2.5
  1
22.30
 50
90.0
  7
DEFAULT
  0
POINT
  5
23C
  8
DEFPOINTS
 62
     0
 10
251.2506656842823
 20
97.81923420138372
 30
0.0
  0
POINT
  5
23D
  8
DEFPOINTS
 62
     0
 10
235.2506656842823
 20
75.51923420138371
 30
0.0
  0
POINT
  5
23E
  8
DEFPOINTS
 62
     0
 10
275.2790512494358
 20
75.51923420138371
 30
0.0
  0
ENDBLK
  5
240
  8
0
  0
BLOCK
  8
0
  2
*D36
 70
     1
 10
0.0
 20
0.0
 30
0.0
  3
*D36
  1

  0
LINE
  5
243
  8
0
 62
     0
 10
251.8756656842823
 20
97.81923420138372
 30
0.0
 11
289.3624316788585
 21
97.81923420138372
 31
0.0
  0
LINE
  5
244
  8
0
 62
     0
 10
216.8756656842823
 20
69.51923420138371
 30
0.0
 11
289.3624316788585
 21
69.51923420138371
 31
0.0
  0
LINE
  5
245
  8
0
 62
     0
 10
288.1124316788585
 20
100.3192342013837
 30
0.0
 11
288.1124316788585
 21
231.362325040813
 31
0.0
  0
LINE
  5
246
  8
0
 62
     0
 10
288.1124316788585
 20
67.01923420138368
 30
0.0
 11
288.1124316788585
 21
-64.02385663804554
 31
0.0
  0
SOLID
  5
247
  8
0
 62
     0
 10
287.6957650121918
 20
100.3192342013837
 30
0.0
 11
288.5290983455252
 21
100.3192342013837
 31
0.0
 12
288.1124316788585
 22
97.81923420138369
 32
0.0
 13
288.1124316788585
 23
97.81923420138369
 33
0.0
  0
SOLID
  5
248
  8
0
 62
     0
 10
288.5290983455252
 20
67.01923420138368
 30
0.0
 11
287.6957650121918
 21
67.01923420138368
 31
0.0
 12
288.1124316788585
 22
69.51923420138368
 32
0.0
 13
288.1124316788585
 23
69.51923420138368
 33
0.0
  0
TEXT
  5
249
  8
0
 62
     0
 10
287.9749316788585
 20
79.33673420138368
 30
0.0
 40
2.5
  1
28.30
 50
90.0
  7
DEFAULT
  0
POINT
  5
24A
  8
DEFPOINTS
 62
     0
 10
251.2506656842823
 20
97.81923420138372
 30
0.0
  0
POINT
  5
24B
  8
DEFPOINTS
 62
     0
 10
216.2506656842823
 20
69.51923420138371
 30
0.0
  0
POINT
  5
24C
  8
DEFPOINTS
 62
     0
 10
288.1124316788585
 20
69.51923420138371
 30
0.0
  0
ENDBLK
  5
24E
  8
0
  0
BLOCK
  8
0
  2
*D37
 70
     1
 10
0.0
 20
0.0
 30
0.0
  3
*D37
  1

  0
LINE
  5
251
  8
0
 62
     0
 10
251.8756656842823
 20
97.81923420138372
 30
0.0
 11
297.8956677867653
 21
97.81923420138372
 31
0.0
  0
LINE
  5
252
  8
0
 62
     0
 10
243.8756656842823
 20
59.51923420138371
 30
0.0
 11
297.8956677867653
 21
59.51923420138371
 31
0.0
  0
LINE
  5
253
  8
0
 62
     0
 10
296.6456677867653
 20
100.3192342013837
 30
0.0
 11
296.6456677867653
 21
230.6064430947664
 31
0.0
  0
LINE
  5
254
  8
0
 62
     0
 10
296.6456677867653
 20
57.01923420138368
 30
0.0
 11
296.6456677867653
 21
-73.26797469199892
 31
0.0
  0
SOLID
  5
255
  8
0
 62
     0
 10
296.2290011200986
 20
100.3192342013837
 30
0.0
 11
297.062334453432
 21
100.3192342013837
 31
0.0
 12
296.6456677867653
 22
97.81923420138369
 32
0.0
 13
296.6456677867653
 23
97.81923420138369
 33
0.0
  0
SOLID
  5
256
  8
0
 62
     0
 10
297.062334453432
 20
57.01923420138368
 30
0.0
 11
296.2290011200986
 21
57.01923420138368
 31
0.0
 12
296.6456677867653
 22
59.51923420138368
 32
0.0
 13
296.6456677867653
 23
59.51923420138368
 33
0.0
  0
TEXT
  5
257
  8
0
 62
     0
 10
296.5081677867653
 20
74.31423420138376
 30
0.0
 40
2.5
  1
38.30
 50
90.0
  7
DEFAULT
  0
POINT
  5
258
  8
DEFPOINTS
 62
     0
 10
251.2506656842823
 20
97.81923420138372
 30
0.0
  0
POINT
  5
259
  8
DEFPOINTS
 62
     0
 10
243.2506656842823
 20
59.51923420138371
 30
0.0
  0
POINT
  5
25A
  8
DEFPOINTS
 62
     0
 10
296.6456677867653
 20
59.51923420138371
 30
0.0
  0
ENDBLK
  5
25C
  8
0
  0
BLOCK
  8
0
  2
*D38
 70
     1
 10
0.0
 20
0.0
 30
0.0
  3
*D38
  1

  0
LINE
  5
25F
  8
0
 62
     0
 10
251.8756656842823
 20
97.81923420138372
 30
0.0
 11
306.1018275641428
 21
97.81923420138372
 31
0.0
  0
LINE
  5
260
  8
0
 62
     0
 10
251.8756656842822
 20
51.51923420138371
 30
0.0
 11
306.1018275641428
 21
51.51923420138371
 31
0.0
  0
LINE
  5
261
  8
0
 62
     0
 10
304.8518275641428
 20
100.3192342013837
 30
0.0
 11
304.8518275641428
 21
230.7607729834551
 31
0.0
  0
LINE
  5
262
  8
0
 62
     0
 10
304.8518275641428
 20
49.01923420138368
 30
0.0
 11
304.8518275641428
 21
-81.42230458068767
 31
0.0
  0
SOLID
  5
263
  8
0
 62
     0
 10
304.4351608974761
 20
100.3192342013837
 30
0.0
 11
305.2684942308094
 21
100.3192342013837
 31
0.0
 12
304.8518275641428
 22
97.81923420138369
 32
0.0
 13
304.8518275641428
 23
97.81923420138369
 33
0.0
  0
SOLID
  5
264
  8
0
 62
     0
 10
305.2684942308094
 20
49.01923420138368
 30
0.0
 11
304.4351608974761
 21
49.01923420138368
 31
0.0
 12
304.8518275641428
 22
51.51923420138368
 32
0.0
 13
304.8518275641428
 23
51.51923420138368
 33
0.0
  0
TEXT
  5
265
  8
0
 62
     0
 10
304.7143275641428
 20
70.36548420138368
 30
0.0
 40
2.5
  1
46.30
 50
90.0
  7
DEFAULT
  0
POINT
  5
266
  8
DEFPOINTS
 62
     0
 10
251.2506656842823
 20
97.81923420138372
 30
0.0
  0
POINT
  5
267
  8
DEFPOINTS
 62
     0
 10
251.2506656842822
 20
51.51923420138371
 30
0.0
  0
POINT
  5
268
  8
DEFPOINTS
 62
     0
 10
304.8518275641428
 20
51.51923420138371
 30
0.0
  0
ENDBLK
  5
26A
  8
0
  0
BLOCK
  8
0
  2
*D39
 70
     1
 10
0.0
 20
0.0
 30
0.0
  3
*D39
  1

  0
LINE
  5
26D
  8
0
 62
     0
 10
355.3574590456846
 20
289.841289850526
 30
0.0
 11
355.3574590456846
 21
300.1250048828515
 31
0.0
  0
LINE
  5
26E
  8
0
 62
     0
 10
359.9574590456846
 20
285.241289850526
 30
0.0
 11
359.9574590456846
 21
300.1250048828515
 31
0.0
  0
LINE
  5
26F
  8
0
 62
     0
 10
352.8574590456846
 20
298.8750048828515
 30
0.0
 11
350.3574590456846
 21
298.8750048828515
 31
0.0
  0
LINE
  5
270
  8
0
 62
     0
 10
362.4574590456846
 20
298.8750048828515
 30
0.0
 11
729.3724180913692
 21
298.8750048828515
 31
0.0
  0
SOLID
  5
271
  8
0
 62
     0
 10
352.8574590456846
 20
298.4583382161848
 30
0.0
 11
352.8574590456846
 21
299.2916715495182
 31
0.0
 12
355.3574590456846
 22
298.8750048828515
 32
0.0
 13
355.3574590456846
 23
298.8750048828515
 33
0.0
  0
SOLID
  5
272
  8
0
 62
     0
 10
362.4574590456846
 20
299.2916715495182
 30
0.0
 11
362.4574590456846
 21
298.4583382161848
 31
0.0
 12
359.9574590456846
 22
298.8750048828515
 32
0.0
 13
359.9574590456846
 23
298.8750048828515
 33
0.0
  0
TEXT
  5
273
  8
0
 62
     0
 10
543.831188568527
 20
449.1331323242772
 30
0.0
 40
2.5
  1
4.60
  7
DEFAULT
  0
POINT
  5
274
  8
DEFPOINTS
 62
     0
 10
355.3574590456846
 20
289.216289850526
 30
0.0
  0
POINT
  5
275
  8
DEFPOINTS
 62
     0
 10
359.9574590456846
 20
284.616289850526
 30
0.0
  0
POINT
  5
276
  8
DEFPOINTS
 62
     0
 10
359.9574590456846
 20
298.8750048828515
 30
0.0
  0
ENDBLK
  5
278
  8
0
  0
BLOCK
  8
0
  2
*D40
 70
     1
 10
0.0
 20
0.0
 30
0.0
  3
*D40
  1

  0
LINE
  5
27B
  8
0
 62
     0
 10
355.3574590456846
 20
289.841289850526
 30
0.0
 11
355.3574590456846
 21
312.0521376112772
 31
0.0
  0
LINE
  5
27C
  8
0
 62
     0
 10
364.6574590456847
 20
265.541289850526
 30
0.0
 11
364.6574590456847
 21
312.0521376112772
 31
0.0
  0
LINE
  5
27D
  8
0
 62
     0
 10
352.8574590456846
 20
310.8021376112772
 30
0.0
 11
176.6749795228423
 21
310.8021376112772
 31
0.0
  0
LINE
  5
27E
  8
0
 62
     0
 10
367.1574590456847
 20
310.8021376112772
 30
0.0
 11
543.3399385685269
 21
310.8021376112772
 31
0.0
  0
SOLID
  5
27F
  8
0
 62
     0
 10
352.8574590456846
 20
310.3854709446105
 30
0.0
 11
352.8574590456846
 21
311.2188042779439
 31
0.0
 12
355.3574590456846
 22
310.8021376112772
 32
0.0
 13
355.3574590456846
 23
310.8021376112772
 33
0.0
  0
SOLID
  5
280
  8
0
 62
     0
 10
367.1574590456847
 20
311.2188042779439
 30
0.0
 11
367.1574590456847
 21
310.3854709446105
 31
0.0
 12
364.6574590456847
 22
310.8021376112772
 32
0.0
 13
364.6574590456847
 23
310.8021376112772
 33
0.0
  0
TEXT
  5
281
  8
0
 62
     0
 10
356.6237090456847
 20
310.9396376112772
 30
0.0
 40
2.5
  1
9.30
  7
DEFAULT
  0
POINT
  5
282
  8
DEFPOINTS
 62
     0
 10
355.3574590456846
 20
289.216289850526
 30
0.0
  0
POINT
  5
283
  8
DEFPOINTS
 62
     0
 10
364.6574590456847
 20
264.916289850526
 30
0.0
  0
POINT
  5
284
  8
DEFPOINTS
 62
     0
 10
364.6574590456847
 20
310.8021376112772
 30
0.0
  0
ENDBLK
  5
286
  8
0
  0
BLOCK
  8
0
  2
*D41
 70
     1
 10
0.0
 20
0.0
 30
0.0
  3
*D41
  1

  0
LINE
  5
289
  8
0
 62
     0
 10
355.3574590456846
 20
289.841289850526
 30
0.0
 11
355.3574590456846
 21
320.0003721483738
 31
0.0
  0
LINE
  5
28A
  8
0
 62
     0
 10
383.6574590456847
 20
261.541289850526
 30
0.0
 11
383.6574590456847
 21
320.0003721483738
 31
0.0
  0
LINE
  5
28B
  8
0
 62
     0
 10
352.8574590456846
 20
318.7503721483738
 30
0.0
 11
180.4337295228423
 21
318.7503721483738
 31
0.0
  0
LINE
  5
28C
  8
0
 62
     0
 10
386.1574590456847
 20
318.7503721483738
 30
0.0
 11
558.581188568527
 21
318.7503721483738
 31
0.0
  0
SOLID
  5
28D
  8
0
 62
     0
 10
352.8574590456846
 20
318.3337054817071
 30
0.0
 11
352.8574590456846
 21
319.1670388150405
 31
0.0
 12
355.3574590456846
 22
318.7503721483738
 32
0.0
 13
355.3574590456846
 23
318.7503721483738
 33
0.0
  0
SOLID
  5
28E
  8
0
 62
     0
 10
386.1574590456847
 20
319.1670388150405
 30
0.0
 11
386.1574590456847
 21
318.3337054817071
 31
0.0
 12
383.6574590456847
 22
318.7503721483738
 32
0.0
 13
383.6574590456847
 23
318.7503721483738
 33
0.0
  0
TEXT
  5
28F
  8
0
 62
     0
 10
365.1749590456846
 20
318.8878721483738
 30
0.0
 40
2.5
  1
28.30
  7
DEFAULT
  0
POINT
  5
290
  8
DEFPOINTS
 62
     0
 10
355.3574590456846
 20
289.216289850526
 30
0.0
  0
POINT
  5
291
  8
DEFPOINTS
 62
     0
 10
383.6574590456847
 20
260.916289850526
 30
0.0
  0
POINT
  5
292
  8
DEFPOINTS
 62
     0
 10
383.6574590456847
 20
318.7503721483738
 30
0.0
  0
ENDBLK
  5
294
  8
0
  0
BLOCK
  8
0
  2
*D42
 70
     1
 10
0.0
 20
0.0
 30
0.0
  3
*D42
  1

  0
LINE
  5
297
  8
0
 62
     0
 10
355.3574590456846
 20
289.841289850526
 30
0.0
 11
355.3574590456846
 21
327.3259038897804
 31
0.0
  0
LINE
  5
298
  8
0
 62
     0
 10
402.6574590456847
 20
265.541289850526
 30
0.0
 11
402.6574590456847
 21
327.3259038897804
 31
0.0
  0
LINE
  5
299
  8
0
 62
     0
 10
352.8574590456846
 20
326.0759038897804
 30
0.0
 11
185.1549795228423
 21
326.0759038897804
 31
0.0
  0
LINE
  5
29A
  8
0
 62
     0
 10
405.1574590456847
 20
326.0759038897804
 30
0.0
 11
572.859938568527
 21
326.0759038897804
 31
0.0
  0
SOLID
  5
29B
  8
0
 62
     0
 10
352.8574590456846
 20
325.6592372231137
 30
0.0
 11
352.8574590456846
 21
326.4925705564471
 31
0.0
 12
355.3574590456846
 22
326.0759038897804
 32
0.0
 13
355.3574590456846
 23
326.0759038897804
 33
0.0
  0
SOLID
  5
29C
  8
0
 62
     0
 10
405.1574590456847
 20
326.4925705564471
 30
0.0
 11
405.1574590456847
 21
325.6592372231137
 31
0.0
 12
402.6574590456847
 22
326.0759038897804
 32
0.0
 13
402.6574590456847
 23
326.0759038897804
 33
0.0
  0
TEXT
  5
29D
  8
0
 62
     0
 10
374.7037090456846
 20
326.2134038897804
 30
0.0
 40
2.5
  1
47.30
  7
DEFAULT
  0
POINT
  5
29E
  8
DEFPOINTS
 62
     0
 10
355.3574590456846
 20
289.216289850526
 30
0.0
  0
POINT
  5
29F
  8
DEFPOINTS
 62
     0
 10
402.6574590456847
 20
264.916289850526
 30
0.0
  0
POINT
  5
2A0
  8
DEFPOINTS
 62
     0
 10
402.6574590456847
 20
326.0759038897804
 30
0.0
  0
ENDBLK
  5
2A2
  8
0
  0
BLOCK
  8
0
  2
*D43
 70
     1
 10
0.0
 20
0.0
 30
0.0
  3
*D43
  1

  0
LINE
  5
2A5
  8
0
 62
     0
 10
355.3574590456846
 20
289.841289850526
 30
0.0
 11
355.3574590456846
 21
334.3972027277107
 31
0.0
  0
LINE
  5
2A6
  8
0
 62
     0
 10
407.3574590456846
 20
285.241289850526
 30
0.0
 11
407.3574590456846
 21
334.3972027277107
 31
0.0
  0
LINE
  5
2A7
  8
0
 62
     0
 10
352.8574590456846
 20
333.1472027277107
 30
0.0
 11
186.3799795228423
 21
333.1472027277107
 31
0.0
  0
LINE
  5
2A8
  8
0
 62
     0
 10
409.8574590456846
 20
333.1472027277107
 30
0.0
 11
576.3349385685269
 21
333.1472027277107
 31
0.0
  0
SOLID
  5
2A9
  8
0
 62
     0
 10
352.8574590456846
 20
332.730536061044
 30
0.0
 11
352.8574590456846
 21
333.5638693943774
 31
0.0
 12
355.3574590456846
 22
333.1472027277107
 32
0.0
 13
355.3574590456846
 23
333.1472027277107
 33
0.0
  0
SOLID
  5
2AA
  8
0
 62
     0
 10
409.8574590456846
 20
333.5638693943774
 30
0.0
 11
409.8574590456846
 21
332.730536061044
 31
0.0
 12
407.3574590456846
 22
333.1472027277107
 32
0.0
 13
407.3574590456846
 23
333.1472027277107
 33
0.0
  0
TEXT
  5
2AB
  8
0
 62
     0
 10
377.0037090456846
 20
333.2847027277107
 30
0.0
 40
2.5
  1
52.00
  7
DEFAULT
  0
POINT
  5
2AC
  8
DEFPOINTS
 62
     0
 10
355.3574590456846
 20
289.216289850526
 30
0.0
  0
POINT
  5
2AD
  8
DEFPOINTS
 62
     0
 10
407.3574590456846
 20
284.616289850526
 30
0.0
  0
POINT
  5
2AE
  8
DEFPOINTS
 62
     0
 10
407.3574590456846
 20
333.1472027277107
 30
0.0
  0
ENDBLK
  5
2B0
  8
0
  0
BLOCK
  8
0
  2
*D44
 70
     1
 10
0.0
 20
0.0
 30
0.0
  3
*D44
  1

  0
LINE
  5
2B3
  8
0
 62
     0
 10
355.3574590456846
 20
289.841289850526
 30
0.0
 11
355.3574590456846
 21
343.165613452031
 31
0.0
  0
LINE
  5
2B4
  8
0
 62
     0
 10
411.9574590456846
 20
289.841289850526
 30
0.0
 11
411.9574590456846
 21
343.165613452031
 31
0.0
  0
LINE
  5
2B5
  8
0
 62
     0
 10
352.8574590456846
 20
341.915613452031
 30
0.0
 11
187.5299795228423
 21
341.915613452031
 31
0.0
  0
LINE
  5
2B6
  8
0
 62
     0
 10
414.4574590456846
 20
341.915613452031
 30
0.0
 11
579.784938568527
 21
341.915613452031
 31
0.0
  0
SOLID
  5
2B7
  8
0
 62
     0
 10
352.8574590456846
 20
341.4989467853644
 30
0.0
 11
352.8574590456846
 21
342.3322801186977
 31
0.0
 12
355.3574590456846
 22
341.915613452031
 32
0.0
 13
355.3574590456846
 23
341.915613452031
 33
0.0
  0
SOLID
  5
2B8
  8
0
 62
     0
 10
414.4574590456846
 20
342.3322801186977
 30
0.0
 11
414.4574590456846
 21
341.4989467853644
 31
0.0
 12
411.9574590456846
 22
341.915613452031
 32
0.0
 13
411.9574590456846
 23
341.915613452031
 33
0.0
  0
TEXT
  5
2B9
  8
0
 62
     0
 10
379.3037090456846
 20
342.053113452031
 30
0.0
 40
2.5
  1
56.60
  7
DEFAULT
  0
POINT
  5
2BA
  8
DEFPOINTS
 62
     0
 10
355.3574590456846
 20
289.216289850526
 30
0.0
  0
POINT
  5
2BB
  8
DEFPOINTS
 62
     0
 10
411.9574590456846
 20
289.216289850526
 30
0.0
  0
POINT
  5
2BC
  8
DEFPOINTS
 62
     0
 10
411.9574590456846
 20
341.915613452031
 30
0.0
  0
ENDBLK
  5
2BE
  8
0
  0
BLOCK
  8
0
  2
*D45
 70
     1
 10
0.0
 20
0.0
 30
0.0
  3
*D45
  1

  0
LINE
  5
2C1
  8
0
 62
     0
 10
412.5824590456846
 20
289.216289850526
 30
0.0
 11
422.0914091978053
 21
289.216289850526
 31
0.0
  0
LINE
  5
2C2
  8
0
 62
     0
 10
407.9824590456846
 20
284.616289850526
 30
0.0
 11
422.0914091978053
 21
284.616289850526
 31
0.0
  0
LINE
  5
2C3
  8
0
 62
     0
 10
420.8414091978053
 20
291.7162898505259
 30
0.0
 11
420.8414091978053
 21
294.2162898505259
 31
0.0
  0
LINE
  5
2C4
  8
0
 62
     0
 10
420.8414091978053
 20
282.1162898505259
 30
0.0
 11
420.8414091978053
 21
-146.6163693472794
 31
0.0
  0
SOLID
  5
2C5
  8
0
 62
     0
 10
420.4247425311386
 20
291.7162898505259
 30
0.0
 11
421.258075864472
 21
291.7162898505259
 31
0.0
 12
420.8414091978053
 22
289.2162898505259
 32
0.0
 13
420.8414091978053
 23
289.2162898505259
 33
0.0
  0
SOLID
  5
2C6
  8
0
 62
     0
 10
421.258075864472
 20
282.1162898505259
 30
0.0
 11
420.4247425311386
 21
282.1162898505259
 31
0.0
 12
420.8414091978053
 22
284.6162898505259
 32
0.0
 13
420.8414091978053
 23
284.6162898505259
 33
0.0
  0
TEXT
  5
2C7
  8
0
 62
     0
 10
277.2457642725423
 20
63.1662102516232
 30
0.0
 40
2.5
  1
4.60
 50
90.0
  7
DEFAULT
  0
POINT
  5
2C8
  8
DEFPOINTS
 62
     0
 10
411.9574590456846
 20
289.216289850526
 30
0.0
  0
POINT
  5
2C9
  8
DEFPOINTS
 62
     0
 10
407.3574590456846
 20
284.616289850526
 30
0.0
  0
POINT
  5
2CA
  8
DEFPOINTS
 62
     0
 10
420.8414091978053
 20
284.616289850526
 30
0.0
  0
ENDBLK
  5
2CC
  8
0
  0
BLOCK
  8
0
  2
*D46
 70
     1
 10
0.0
 20
0.0
 30
0.0
  3
*D46
  1

  0
LINE
  5
2CF
  8
0
 62
     0
 10
412.5824590456846
 20
289.216289850526
 30
0.0
 11
431.8860973983265
 21
289.216289850526
 31
0.0
  0
LINE
  5
2D0
  8
0
 62
     0
 10
403.2824590456847
 20
264.916289850526
 30
0.0
 11
431.8860973983265
 21
264.916289850526
 31
0.0
  0
LINE
  5
2D1
  8
0
 62
     0
 10
430.6360973983265
 20
291.716289850526
 30
0.0
 11
430.6360973983265
 21
496.0212135496893
 31
0.0
  0
LINE
  5
2D2
  8
0
 62
     0
 10
430.6360973983265
 20
262.4162898505259
 30
0.0
 11
430.6360973983265
 21
58.11136615136275
 31
0.0
  0
SOLID
  5
2D3
  8
0
 62
     0
 10
430.2194307316598
 20
291.716289850526
 30
0.0
 11
431.0527640649932
 21
291.716289850526
 31
0.0
 12
430.6360973983265
 22
289.216289850526
 32
0.0
 13
430.6360973983265
 23
289.216289850526
 33
0.0
  0
SOLID
  5
2D4
  8
0
 62
     0
 10
431.0527640649932
 20
262.4162898505259
 30
0.0
 11
430.2194307316598
 21
262.4162898505259
 31
0.0
 12
430.6360973983265
 22
264.9162898505259
 32
0.0
 13
430.6360973983265
 23
264.9162898505259
 33
0.0
  0
TEXT
  5
2D5
  8
0
 62
     0
 10
430.4985973983265
 20
272.733789850526
 30
0.0
 40
2.5
  1
24.30
 50
90.0
  7
DEFAULT
  0
POINT
  5
2D6
  8
DEFPOINTS
 62
     0
 10
411.9574590456846
 20
289.216289850526
 30
0.0
  0
POINT
  5
2D7
  8
DEFPOINTS
 62
     0
 10
402.6574590456847
 20
264.916289850526
 30
0.0
  0
POINT
  5
2D8
  8
DEFPOINTS
 62
     0
 10
430.6360973983265
 20
264.916289850526
 30
0.0
  0
ENDBLK
  5
2DA
  8
0
  0
BLOCK
  8
0
  2
*D47
 70
     1
 10
0.0
 20
0.0
 30
0.0
  3
*D47
  1

  0
LINE
  5
2DD
  8
0
 62
     0
 10
412.5824590456846
 20
289.216289850526
 30
0.0
 11
439.8723439667331
 21
289.216289850526
 31
0.0
  0
LINE
  5
2DE
  8
0
 62
     0
 10
384.2824590456847
 20
260.916289850526
 30
0.0
 11
439.8723439667331
 21
260.916289850526
 31
0.0
  0
LINE
  5
2DF
  8
0
 62
     0
 10
438.6223439667331
 20
291.716289850526
 30
0.0
 11
438.6223439667331
 21
498.0143368338926
 31
0.0
  0
LINE
  5
2E0
  8
0
 62
     0
 10
438.6223439667331
 20
258.4162898505259
 30
0.0
 11
438.6223439667331
 21
52.11824286715944
 31
0.0
  0
SOLID
  5
2E1
  8
0
 62
     0
 10
438.2056773000664
 20
291.716289850526
 30
0.0
 11
439.0390106333998
 21
291.716289850526
 31
0.0
 12
438.6223439667331
 22
289.216289850526
 32
0.0
 13
438.6223439667331
 23
289.216289850526
 33
0.0
  0
SOLID
  5
2E2
  8
0
 62
     0
 10
439.0390106333998
 20
258.4162898505259
 30
0.0
 11
438.2056773000664
 21
258.4162898505259
 31
0.0
 12
438.6223439667331
 22
260.9162898505259
 32
0.0
 13
438.6223439667331
 23
260.9162898505259
 33
0.0
  0
TEXT
  5
2E3
  8
0
 62
     0
 10
438.4848439667331
 20
270.733789850526
 30
0.0
 40
2.5
  1
28.30
 50
90.0
  7
DEFAULT
  0
POINT
  5
2E4
  8
DEFPOINTS
 62
     0
 10
411.9574590456846
 20
289.216289850526
 30
0.0
  0
POINT
  5
2E5
  8
DEFPOINTS
 62
     0
 10
383.6574590456847
 20
260.916289850526
 30
0.0
  0
POINT
  5
2E6
  8
DEFPOINTS
 62
     0
 10
438.6223439667331
 20
260.916289850526
 30
0.0
  0
ENDBLK
  5
2E8
  8
0
  0
BLOCK
  8
0
  2
*D48
 70
     1
 10
0.0
 20
0.0
 30
0.0
  3
*D48
  1

  0
LINE
  5
2EB
  8
0
 62
     0
 10
412.5824590456846
 20
289.216289850526
 30
0.0
 11
448.5980325324518
 21
289.216289850526
 31
0.0
  0
LINE
  5
2EC
  8
0
 62
     0
 10
407.9824590456846
 20
237.216289850526
 30
0.0
 11
448.5980325324518
 21
237.216289850526
 31
0.0
  0
LINE
  5
2ED
  8
0
 62
     0
 10
447.3480325324518
 20
291.716289850526
 30
0.0
 11
447.3480325324521
 21
490.5059311167519
 31
0.0
  0
LINE
  5
2EE
  8
0
 62
     0
 10
447.3480325324518
 20
234.716289850526
 30
0.0
 11
447.3480325324516
 21
35.9266485843001
 31
0.0
  0
SOLID
  5
2EF
  8
0
 62
     0
 10
446.9313658657852
 20
291.716289850526
 30
0.0
 11
447.7646991991185
 21
291.716289850526
 31
0.0
 12
447.3480325324518
 22
289.216289850526
 32
0.0
 13
447.3480325324518
 23
289.216289850526
 33
0.0
  0
SOLID
  5
2F0
  8
0
 62
     0
 10
447.7646991991185
 20
234.716289850526
 30
0.0
 11
446.9313658657851
 21
234.716289850526
 31
0.0
 12
447.3480325324518
 22
237.216289850526
 32
0.0
 13
447.3480325324518
 23
237.216289850526
 33
0.0
  0
TEXT
  5
2F1
  8
0
 62
     0
 10
447.2105325324518
 20
258.862539850526
 30
0.0
 40
2.5
  1
52.00
 50
90.0
  7
DEFAULT
  0
POINT
  5
2F2
  8
DEFPOINTS
 62
     0
 10
411.9574590456846
 20
289.216289850526
 30
0.0
  0
POINT
  5
2F3
  8
DEFPOINTS
 62
     0
 10
407.3574590456846
 20
237.216289850526
 30
0.0
  0
POINT
  5
2F4
  8
DEFPOINTS
 62
     0
 10
447.3480325324518
 20
237.216289850526
 30
0.0
  0
ENDBLK
  5
2F6
  8
0
  0
BLOCK
  8
0
  2
*D49
 70
     1
 10
0.0
 20
0.0
 30
0.0
  3
*D49
  1

  0
LINE
  5
2F9
  8
0
 62
     0
 10
412.5824590456846
 20
289.216289850526
 30
0.0
 11
457.213343190304
 21
289.216289850526
 31
0.0
  0
LINE
  5
2FA
  8
0
 62
     0
 10
412.5824590456846
 20
232.616289850526
 30
0.0
 11
457.213343190304
 21
232.616289850526
 31
0.0
  0
LINE
  5
2FB
  8
0
 62
     0
 10
455.963343190304
 20
291.7162898505259
 30
0.0
 11
455.9633431903043
 21
492.513586445678
 31
0.0
  0
LINE
  5
2FC
  8
0
 62
     0
 10
455.963343190304
 20
230.1162898505259
 30
0.0
 11
455.9633431903038
 21
29.31899325537398
 31
0.0
  0
SOLID
  5
2FD
  8
0
 62
     0
 10
455.5466765236374
 20
291.7162898505259
 30
0.0
 11
456.3800098569707
 21
291.7162898505259
 31
0.0
 12
455.963343190304
 22
289.2162898505259
 32
0.0
 13
455.963343190304
 23
289.2162898505259
 33
0.0
  0
SOLID
  5
2FE
  8
0
 62
     0
 10
456.3800098569707
 20
230.1162898505259
 30
0.0
 11
455.5466765236373
 21
230.1162898505259
 31
0.0
 12
455.963343190304
 22
232.6162898505259
 32
0.0
 13
455.963343190304
 23
232.6162898505259
 33
0.0
  0
TEXT
  5
2FF
  8
0
 62
     0
 10
455.8258431903039
 20
256.562539850526
 30
0.0
 40
2.5
  1
56.60
 50
90.0
  7
DEFAULT
  0
POINT
  5
300
  8
DEFPOINTS
 62
     0
 10
411.9574590456846
 20
289.216289850526
 30
0.0
  0
POINT
  5
301
  8
DEFPOINTS
 62
     0
 10
411.9574590456846
 20
232.616289850526
 30
0.0
  0
POINT
  5
302
  8
DEFPOINTS
 62
     0
 10
455.963343190304
 20
232.616289850526
 30
0.0
  0
ENDBLK
  5
304
  8
0
  0
BLOCK
  8
0
  2
*D50
 70
     1
 10
0.0
 20
0.0
 30
0.0
  3
*D50
  1

  0
LINE
  5
318
  8
0
 62
     0
 10
426.9118666342245
 20
155.2664755418531
 30
0.0
 11
422.5983617952296
 21
155.2664755418531
 31
0.0
  0
LINE
  5
319
  8
0
 62
     0
 10
426.9118666342245
 20
150.7664755418531
 30
0.0
 11
422.5983617952296
 21
150.7664755418531
 31
0.0
  0
LINE
  5
31A
  8
0
 62
     0
 10
423.8483617952296
 20
157.766475541853
 30
0.0
 11
423.8483617952296
 21
160.266475541853
 31
0.0
  0
LINE
  5
31B
  8
0
 62
     0
 10
423.8483617952296
 20
148.266475541853
 30
0.0
 11
423.8483617952296
 21
-283.4731362533765
 31
0.0
  0
SOLID
  5
31C
  8
0
 62
     0
 10
423.4316951285629
 20
157.766475541853
 30
0.0
 11
424.2650284618963
 21
157.766475541853
 31
0.0
 12
423.8483617952296
 22
155.266475541853
 32
0.0
 13
423.8483617952296
 23
155.266475541853
 33
0.0
  0
SOLID
  5
31D
  8
0
 62
     0
 10
424.2650284618963
 20
148.266475541853
 30
0.0
 11
423.4316951285629
 21
148.266475541853
 31
0.0
 12
423.8483617952296
 22
150.766475541853
 32
0.0
 13
423.8483617952296
 23
150.766475541853
 33
0.0
  0
TEXT
  5
31E
  8
0
 62
     0
 10
347.2026240243031
 20
-72.18708035576174
 30
0.0
 40
2.5
  1
4.50
 50
90.0
  7
DEFAULT
  0
POINT
  5
31F
  8
DEFPOINTS
 62
     0
 10
427.5368666342245
 20
155.2664755418531
 30
0.0
  0
POINT
  5
320
  8
DEFPOINTS
 62
     0
 10
427.5368666342245
 20
150.7664755418531
 30
0.0
  0
POINT
  5
321
  8
DEFPOINTS
 62
     0
 10
423.8483617952296
 20
150.7664755418531
 30
0.0
  0
ENDBLK
  5
323
  8
0
  0
BLOCK
  8
0
  2
*D51
 70
     1
 10
0.0
 20
0.0
 30
0.0
  3
*D51
  1

  0
LINE
  5
326
  8
0
 62
     0
 10
426.9118666342245
 20
159.0164755418531
 30
0.0
 11
416.0395948420469
 21
159.0164755418531
 31
0.0
  0
LINE
  5
327
  8
0
 62
     0
 10
426.9118666342245
 20
147.0164755418531
 30
0.0
 11
416.0395948420469
 21
147.0164755418531
 31
0.0
  0
LINE
  5
328
  8
0
 62
     0
 10
417.289594842047
 20
156.516475541853
 30
0.0
 11
417.289594842047
 21
147.016475541853
 31
0.0
  0
LINE
  5
329
  8
0
 62
     0
 10
417.289594842047
 20
147.016475541853
 30
0.0
 11
417.289594842047
 21
-279.7693693001939
 31
0.0
  0
SOLID
  5
32A
  8
0
 62
     0
 10
417.7062615087137
 20
156.516475541853
 30
0.0
 11
416.8729281753803
 21
156.516475541853
 31
0.0
 12
417.289594842047
 22
159.016475541853
 32
0.0
 13
417.289594842047
 23
159.016475541853
 33
0.0
  0
SOLID
  5
32B
  8
0
 62
     0
 10
416.8729281753803
 20
149.516475541853
 30
0.0
 11
417.7062615087137
 21
149.516475541853
 31
0.0
 12
417.289594842047
 22
147.016475541853
 32
0.0
 13
417.289594842047
 23
147.016475541853
 33
0.0
  0
TEXT
  5
32C
  8
0
 62
     0
 10
340.6438570711205
 20
-72.09769687917043
 30
0.0
 40
2.5
  1
12.00
 50
90.0
  7
DEFAULT
  0
POINT
  5
32D
  8
DEFPOINTS
 62
     0
 10
427.5368666342245
 20
159.0164755418531
 30
0.0
  0
POINT
  5
32E
  8
DEFPOINTS
 62
     0
 10
427.5368666342245
 20
147.0164755418531
 30
0.0
  0
POINT
  5
32F
  8
DEFPOINTS
 62
     0
 10
417.2895948420469
 20
147.0164755418531
 30
0.0
  0
ENDBLK
  5
331
  8
0
  0
BLOCK
  8
0
  2
*D52
 70
     1
 10
0.0
 20
0.0
 30
0.0
  3
*D52
  1

  0
LINE
  5
334
  8
0
 62
     0
 10
427.5368666342245
 20
159.6414755418531
 30
0.0
 11
427.5368666342245
 21
164.2536843765998
 31
0.0
  0
LINE
  5
335
  8
0
 62
     0
 10
435.5368666342245
 20
153.6414755418531
 30
0.0
 11
435.5368666342245
 21
164.2536843765998
 31
0.0
  0
LINE
  5
336
  8
0
 62
     0
 10
425.0368666342245
 20
163.0036843765998
 30
0.0
 11
212.4384333171123
 21
163.0036843765998
 31
0.0
  0
LINE
  5
337
  8
0
 62
     0
 10
438.0368666342245
 20
163.0036843765998
 30
0.0
 11
650.6352999513367
 21
163.0036843765998
 31
0.0
  0
SOLID
  5
338
  8
0
 62
     0
 10
425.0368666342245
 20
162.5870177099332
 30
0.0
 11
425.0368666342245
 21
163.4203510432665
 31
0.0
 12
427.5368666342245
 22
163.0036843765998
 32
0.0
 13
427.5368666342245
 23
163.0036843765998
 33
0.0
  0
SOLID
  5
339
  8
0
 62
     0
 10
438.0368666342245
 20
163.4203510432665
 30
0.0
 11
438.0368666342245
 21
162.5870177099332
 31
0.0
 12
435.5368666342245
 22
163.0036843765998
 32
0.0
 13
435.5368666342245
 23
163.0036843765998
 33
0.0
  0
TEXT
  5
33A
  8
0
 62
     0
 10
428.1543666342245
 20
163.1411843765999
 30
0.0
 40
2.5
  1
8.00
  7
DEFAULT
  0
POINT
  5
33B
  8
DEFPOINTS
 62
     0
 10
427.5368666342245
 20
159.0164755418531
 30
0.0
  0
POINT
  5
33C
  8
DEFPOINTS
 62
     0
 10
435.5368666342245
 20
153.0164755418531
 30
0.0
  0
POINT
  5
33D
  8
DEFPOINTS
 62
     0
 10
435.5368666342245
 20
163.0036843765998
 30
0.0
  0
ENDBLK
  5
33F
  8
0
  0
BLOCK
  8
0
  2
*D53
 70
     1
 10
0.0
 20
0.0
 30
0.0
  3
*D53
  1

  0
LINE
  5
342
  8
0
 62
     0
 10
427.5368666342245
 20
159.6414755418531
 30
0.0
 11
427.5368666342245
 21
169.6255852040875
 31
0.0
  0
LINE
  5
343
  8
0
 62
     0
 10
438.5368666342245
 20
159.6414755418531
 30
0.0
 11
438.5368666342245
 21
169.6255852040875
 31
0.0
  0
LINE
  5
344
  8
0
 62
     0
 10
425.0368666342245
 20
168.3755852040875
 30
0.0
 11
212.3371833171123
 21
168.3755852040875
 31
0.0
  0
LINE
  5
345
  8
0
 62
     0
 10
441.0368666342245
 20
168.3755852040875
 30
0.0
 11
653.7365499513368
 21
168.3755852040875
 31
0.0
  0
SOLID
  5
346
  8
0
 62
     0
 10
425.0368666342245
 20
167.9589185374209
 30
0.0
 11
425.0368666342245
 21
168.7922518707542
 31
0.0
 12
427.5368666342245
 22
168.3755852040875
 32
0.0
 13
427.5368666342245
 23
168.3755852040875
 33
0.0
  0
SOLID
  5
347
  8
0
 62
     0
 10
441.0368666342245
 20
168.7922518707542
 30
0.0
 11
441.0368666342245
 21
167.9589185374209
 31
0.0
 12
438.5368666342245
 22
168.3755852040875
 32
0.0
 13
438.5368666342245
 23
168.3755852040875
 33
0.0
  0
TEXT
  5
348
  8
0
 62
     0
 10
428.5656166342245
 20
168.5130852040876
 30
0.0
 40
2.5
  1
11.00
  7
DEFAULT
  0
POINT
  5
349
  8
DEFPOINTS
 62
     0
 10
427.5368666342245
 20
159.0164755418531
 30
0.0
  0
POINT
  5
34A
  8
DEFPOINTS
 62
     0
 10
438.5368666342245
 20
159.0164755418531
 30
0.0
  0
POINT
  5
34B
  8
DEFPOINTS
 62
     0
 10
438.5368666342245
 20
168.3755852040875
 30
0.0
  0
ENDBLK
  5
34D
  8
0
  0
BLOCK
  8
0
  2
*D54
 70
     1
 10
0.0
 20
0.0
 30
0.0
  3
*D54
  1

  0
LINE
  5
350
  8
0
 62
     0
 10
438.5368666342245
 20
146.3914755418531
 30
0.0
 11
438.5368666342245
 21
135.5388114375883
 31
0.0
  0
LINE
  5
351
  8
0
 62
     0
 10
448.5368666342245
 20
149.2114755418531
 30
0.0
 11
448.5368666342245
 21
135.5388114375883
 31
0.0
  0
LINE
  5
352
  8
0
 62
     0
 10
436.0368666342245
 20
136.7888114375883
 30
0.0
 11
217.5871833171123
 21
136.7888114375883
 31
0.0
  0
LINE
  5
353
  8
0
 62
     0
 10
451.0368666342245
 20
136.7888114375883
 30
0.0
 11
669.4865499513368
 21
136.7888114375883
 31
0.0
  0
SOLID
  5
354
  8
0
 62
     0
 10
436.0368666342245
 20
136.3721447709216
 30
0.0
 11
436.0368666342245
 21
137.2054781042549
 31
0.0
 12
438.5368666342245
 22
136.7888114375883
 32
0.0
 13
438.5368666342245
 23
136.7888114375883
 33
0.0
  0
SOLID
  5
355
  8
0
 62
     0
 10
451.0368666342245
 20
137.2054781042549
 30
0.0
 11
451.0368666342245
 21
136.3721447709216
 31
0.0
 12
448.5368666342245
 22
136.7888114375883
 32
0.0
 13
448.5368666342245
 23
136.7888114375883
 33
0.0
  0
TEXT
  5
356
  8
0
 62
     0
 10
439.0656166342245
 20
136.9263114375883
 30
0.0
 40
2.5
  1
10.00
  7
DEFAULT
  0
POINT
  5
357
  8
DEFPOINTS
 62
     0
 10
438.5368666342245
 20
147.0164755418531
 30
0.0
  0
POINT
  5
358
  8
DEFPOINTS
 62
     0
 10
448.5368666342245
 20
149.8364755418531
 30
0.0
  0
POINT
  5
359
  8
DEFPOINTS
 62
     0
 10
448.5368666342245
 20
136.7888114375883
 30
0.0
  0
ENDBLK
  5
35B
  8
0
  0
BLOCK
  8
0
  2
*D55
 70
     1
 10
0.0
 20
0.0
 30
0.0
  3
*D55
  1

  0
LINE
  5
35E
  8
0
 62
     0
 10
449.1618666342245
 20
156.1964755418531
 30
0.0
 11
460.0426077324776
 21
156.1964755418531
 31
0.0
  0
LINE
  5
35F
  8
0
 62
     0
 10
449.1618666342245
 20
149.8364755418531
 30
0.0
 11
460.0426077324776
 21
149.8364755418531
 31
0.0
  0
LINE
  5
360
  8
0
 62
     0
 10
458.7926077324777
 20
153.6964755418531
 30
0.0
 11
458.7926077324777
 21
152.3364755418531
 31
0.0
  0
LINE
  5
361
  8
0
 62
     0
 10
458.7926077324777
 20
149.8364755418531
 30
0.0
 11
458.7926077324777
 21
-316.7723821906246
 31
0.0
  0
SOLID
  5
362
  8
0
 62
     0
 10
459.2092743991444
 20
153.6964755418531
 30
0.0
 11
458.375941065811
 21
153.6964755418531
 31
0.0
 12
458.7926077324777
 22
156.1964755418531
 32
0.0
 13
458.7926077324777
 23
156.1964755418531
 33
0.0
  0
SOLID
  5
363
  8
0
 62
     0
 10
458.375941065811
 20
152.3364755418531
 30
0.0
 11
459.2092743991444
 21
152.3364755418531
 31
0.0
 12
458.7926077324777
 22
149.8364755418531
 32
0.0
 13
458.7926077324777
 23
149.8364755418531
 33
0.0
  0
TEXT
  5
364
  8
0
 62
     0
 10
382.1468699615512
 20
-88.09920332438577
 30
0.0
 40
2.5
  1
6.36
 50
90.0
  7
DEFAULT
  0
POINT
  5
365
  8
DEFPOINTS
 62
     0
 10
448.5368666342245
 20
156.1964755418531
 30
0.0
  0
POINT
  5
366
  8
DEFPOINTS
 62
     0
 10
448.5368666342245
 20
149.8364755418531
 30
0.0
  0
POINT
  5
367
  8
DEFPOINTS
 62
     0
 10
458.7926077324776
 20
149.8364755418531
 30
0.0
  0
ENDBLK
  5
369
  8
0
  0
BLOCK
  8
0
  2
*D56
 70
     1
 10
0.0
 20
0.0
 30
0.0
  3
*D56
  1

  0
LINE
  5
382
  8
0
 62
     0
 10
181.2506656842823
 20
98.44423420138372
 30
0.0
 11
181.2506656842823
 21
101.3927575912711
 31
0.0
  0
LINE
  5
383
  8
0
 62
     0
 10
192.5506656842823
 20
93.8442342013837
 30
0.0
 11
192.5506656842823
 21
101.3927575912711
 31
0.0
  0
LINE
  5
384
  8
0
 62
     0
 10
178.7506656842823
 20
100.1427575912711
 30
0.0
 11
89.26908284214113
 21
100.1427575912711
 31
0.0
  0
LINE
  5
385
  8
0
 62
     0
 10
195.0506656842823
 20
100.1427575912711
 30
0.0
 11
284.5322485264234
 21
100.1427575912711
 31
0.0
  0
SOLID
  5
386
  8
0
 62
     0
 10
178.7506656842823
 20
99.72609092460444
 30
0.0
 11
178.7506656842823
 21
100.5594242579378
 31
0.0
 12
181.2506656842823
 22
100.1427575912711
 32
0.0
 13
181.2506656842823
 23
100.1427575912711
 33
0.0
  0
SOLID
  5
387
  8
0
 62
     0
 10
195.0506656842823
 20
100.5594242579378
 30
0.0
 11
195.0506656842823
 21
99.72609092460444
 31
0.0
 12
192.5506656842823
 22
100.1427575912711
 32
0.0
 13
192.5506656842823
 23
100.1427575912711
 33
0.0
  0
TEXT
  5
388
  8
0
 62
     0
 10
182.4294156842823
 20
100.2802575912711
 30
0.0
 40
2.5
  1
11.30
  7
DEFAULT
  0
POINT
  5
389
  8
DEFPOINTS
 62
     0
 10
181.2506656842823
 20
97.81923420138372
 30
0.0
  0
POINT
  5
38A
  8
DEFPOINTS
 62
     0
 10
192.5506656842823
 20
93.2192342013837
 30
0.0
  0
POINT
  5
38B
  8
DEFPOINTS
 62
     0
 10
192.5506656842823
 20
100.1427575912711
 30
0.0
  0
ENDBLK
  5
38D
  8
0
  0
BLOCK
  8
0
  2
*D57
 70
     1
 10
0.0
 20
0.0
 30
0.0
  3
*D57
  1

  0
LINE
  5
3AF
  8
0
 62
     0
 10
193.9799039261926
 20
77.18662560244047
 30
0.0
 11
193.6870165096528
 21
77.33593576194944
 31
0.0
  0
LINE
  5
3B0
  8
0
 62
     0
 10
200.814314858912
 20
73.70253264081795
 30
0.0
 11
203.0415955930555
 21
72.56709416546437
 31
0.0
  0
TEXT
  5
3B1
  8
0
 62
     0
 10
185.6875594944208
 20
81.67772848200829
 30
0.0
 40
2.5
  1
\U+22053.00
 50
332.9881100759963
  7
DEFAULT
  0
SOLID
  5
3B2
  8
0
 62
     0
 10
198.330817723832
 20
75.43627226693279
 30
0.0
 11
197.9523382320475
 21
74.69384535555163
 31
0.0
 12
195.9142972437963
 22
76.20049728659586
 32
0.0
 13
195.9142972437963
 23
76.20049728659586
 33
0.0
  0
SOLID
  5
3B3
  8
0
 62
     0
 10
201.0035546048043
 20
74.07374609650853
 30
0.0
 11
200.6250751130198
 21
73.33131918512737
 31
0.0
 12
198.5870341247685
 22
74.83797111617153
 32
0.0
 13
198.5870341247685
 23
74.83797111617153
 33
0.0
  0
LINE
  5
3B4
  8
0
 62
     0
 10
194.7506656842824
 20
75.5192342013837
 30
0.0
 11
199.7506656842824
 21
75.5192342013837
 31
0.0
  0
LINE
  5
3B5
  8
0
 62
     0
 10
197.2506656842824
 20
73.0192342013837
 30
0.0
 11
197.2506656842824
 21
78.0192342013837
 31
0.0
  0
POINT
  5
3B6
  8
DEFPOINTS
 62
     0
 10
195.9142972437963
 20
76.20049728659586
 30
0.0
  0
POINT
  5
3B7
  8
DEFPOINTS
 62
     0
 10
198.5870341247685
 20
74.83797111617153
 30
0.0
  0
ENDBLK
  5
3B9
  8
0
  0
BLOCK
  8
0
  2
*D58
 70
     1
 10
0.0
 20
0.0
 30
0.0
  3
*D58
  1

  0
LINE
  5
3BC
  8
0
 62
     0
 10
193.5982421787
 20
61.22778773805914
 30
0.0
 11
193.4388581862635
 21
61.16515144302984
 31
0.0
  0
LINE
  5
3BD
  8
0
 62
     0
 10
185.0624731823011
 20
57.87331695973747
 30
0.0
 11
182.7356995700893
 21
56.95891849215626
 31
0.0
  0
TEXT
  5
3BE
  8
0
 62
     0
 10
193.4657532505032
 20
61.42821648825543
 30
0.0
 40
2.5
  1
\U+22054.00
 50
21.45432414781879
  7
DEFAULT
  0
SOLID
  5
3BF
  8
0
 62
     0
 10
193.2864584416666
 20
61.55294704506515
 30
0.0
 11
193.5912579308604
 21
60.77735584099456
 31
0.0
 12
191.1120845740517
 22
60.25075297544862
 32
0.0
 13
191.1120845740517
 23
60.25075297544862
 33
0.0
  0
SOLID
  5
3C0
  8
0
 62
     0
 10
185.2148729268979
 20
57.48552135770218
 30
0.0
 11
184.9100734377042
 21
58.26111256177277
 31
0.0
 12
187.3892467945129
 22
58.78771542731869
 32
0.0
 13
187.3892467945129
 23
58.78771542731869
 33
0.0
  0
LINE
  5
3C1
  8
0
 62
     0
 10
186.7506656842823
 20
59.51923420138365
 30
0.0
 11
191.7506656842823
 21
59.51923420138365
 31
0.0
  0
LINE
  5
3C2
  8
0
 62
     0
 10
189.2506656842823
 20
57.01923420138365
 30
0.0
 11
189.2506656842823
 21
62.01923420138365
 31
0.0
  0
POINT
  5
3C3
  8
DEFPOINTS
 62
     0
 10
191.1120845740517
 20
60.25075297544862
 30
0.0
  0
POINT
  5
3C4
  8
DEFPOINTS
 62
     0
 10
187.3892467945129
 20
58.78771542731869
 30
0.0
  0
ENDBLK
  5
3C6
  8
0
  0
BLOCK
  8
0
  2
*D59
 70
     1
 10
0.0
 20
0.0
 30
0.0
  3
*D59
  1

  0
LINE
  5
3C9
  8
0
 62
     0
 10
235.3032728741723
 20
53.79823198046122
 30
0.0
 11
227.8204893915178
 21
59.97254999253445
 31
0.0
  0
LINE
  5
3CA
  8
0
 62
     0
 10
204.6808419770468
 20
79.06591841023297
 30
0.0
 11
202.7525380258409
 21
80.65703244504118
 31
0.0
  0
TEXT
  5
3CB
  8
0
 62
     0
 10
235.4142715144201
 20
54.01131483257072
 30
0.0
 40
2.5
  1
\U+220525.00
 50
320.4727144013144
  7
DEFAULT
  0
SOLID
  5
3CC
  8
0
 62
     0
 10
228.0856750639858
 20
60.2939339844021
 30
0.0
 11
227.5553037190497
 21
59.65116600066681
 31
0.0
 12
225.8921854403118
 22
61.56366402734267
 32
0.0
 13
225.8921854403118
 23
61.56366402734267
 33
0.0
  0
SOLID
  5
3CD
  8
0
 62
     0
 10
204.4156563045788
 20
78.74453441836532
 30
0.0
 11
204.9460276495149
 21
79.38730240210062
 31
0.0
 12
206.6091459282528
 22
77.47480437542475
 32
0.0
 13
206.6091459282528
 23
77.47480437542475
 33
0.0
  0
LINE
  5
3CE
  8
0
 62
     0
 10
213.7506656842823
 20
69.51923420138371
 30
0.0
 11
218.7506656842823
 21
69.51923420138371
 31
0.0
  0
LINE
  5
3CF
  8
0
 62
     0
 10
216.2506656842823
 20
67.01923420138371
 30
0.0
 11
216.2506656842823
 21
72.01923420138371
 31
0.0
  0
POINT
  5
3D0
  8
DEFPOINTS
 62
     0
 10
225.8921854403118
 20
61.56366402734267
 30
0.0
  0
POINT
  5
3D1
  8
DEFPOINTS
 62
     0
 10
206.6091459282528
 20
77.47480437542475
 30
0.0
  0
ENDBLK
  5
3D3
  8
0
  0
BLOCK
  8
0
  2
*D60
 70
     1
 10
0.0
 20
0.0
 30
0.0
  3
*D60
  1

  0
LINE
  5
3D6
  8
0
 62
     0
 10
38.01774103817078
 20
61.28428257182686
 30
0.0
 11
38.18589803629065
 21
61.31668298051779
 31
0.0
  0
LINE
  5
3D7
  8
0
 62
     0
 10
47.02334611265981
 20
63.01947818179192
 30
0.0
 11
49.47819280054009
 21
63.4924768488125
 31
0.0
  0
TEXT
  5
3D8
  8
0
 62
     0
 10
28.71605230347433
 20
59.73136018715299
 30
0.0
 40
2.5
  1
\U+22054.00
 50
10.90606969161531
  7
DEFAULT
  0
SOLID
  5
3D9
  8
0
 62
     0
 10
38.26473114746076
 20
60.90754186587107
 30
0.0
 11
38.10706492512056
 21
61.7258240951645
 31
0.0
 12
40.64074472417093
 22
61.78968164753837
 32
0.0
 13
40.64074472417093
 23
61.78968164753837
 33
0.0
  0
SOLID
  5
3DA
  8
0
 62
     0
 10
46.94451300148971
 20
63.42861929643863
 30
0.0
 11
47.10217922382991
 21
62.6103370671452
 31
0.0
 12
44.56849942477953
 22
62.54647951477134
 32
0.0
 13
44.56849942477953
 23
62.54647951477134
 33
0.0
  0
LINE
  5
3DB
  8
0
 62
     0
 10
40.10462207447523
 20
62.16808058115485
 30
0.0
 11
45.10462207447523
 21
62.16808058115485
 31
0.0
  0
LINE
  5
3DC
  8
0
 62
     0
 10
42.60462207447523
 20
59.66808058115485
 30
0.0
 11
42.60462207447523
 21
64.66808058115485
 31
0.0
  0
POINT
  5
3DD
  8
DEFPOINTS
 62
     0
 10
40.64074472417093
 20
61.78968164753837
 30
0.0
  0
POINT
  5
3DE
  8
DEFPOINTS
 62
     0
 10
44.56849942477953
 20
62.54647951477134
 30
0.0
  0
ENDBLK
  5
3E0
  8
0
  0
BLOCK
  8
0
  2
*D61
 70
     1
 10
0.0
 20
0.0
 30
0.0
  3
*D61
  1

  0
LINE
  5
3E3
  8
0
 62
     0
 10
40.67133735454202
 20
46.28271845953427
 30
0.0
 11
41.29074971835161
 21
46.54137824778869
 31
0.0
  0
LINE
  5
3E4
  8
0
 62
     0
 10
50.51849443059876
 20
50.39478291452107
 30
0.0
 11
52.82543060866055
 21
51.35813408120417
 31
0.0
  0
TEXT
  5
3E5
  8
0
 62
     0
 10
31.88132601740281
 20
42.86677321071013
 30
0.0
 40
2.5
  1
\U+22055.00
 50
22.66487847373061
  7
DEFAULT
  0
SOLID
  5
3E6
  8
0
 62
     0
 10
41.45130824613212
 20
46.15688888477839
 30
0.0
 11
41.13019119057109
 21
46.92586761079898
 31
0.0
 12
43.5976858964134
 22
47.50472941447178
 32
0.0
 13
43.5976858964134
 23
47.50472941447178
 33
0.0
  0
SOLID
  5
3E7
  8
0
 62
     0
 10
50.35793590281825
 20
50.77927227753137
 30
0.0
 11
50.67905295837928
 21
50.01029355151078
 31
0.0
 12
48.21155825253698
 22
49.43143174783798
 32
0.0
 13
48.21155825253698
 23
49.43143174783798
 33
0.0
  0
LINE
  5
3E8
  8
0
 62
     0
 10
43.40462207447519
 20
48.46808058115488
 30
0.0
 11
48.40462207447519
 21
48.46808058115488
 31
0.0
  0
LINE
  5
3E9
  8
0
 62
     0
 10
45.90462207447519
 20
45.96808058115488
 30
0.0
 11
45.90462207447519
 21
50.96808058115488
 31
0.0
  0
POINT
  5
3EA
  8
DEFPOINTS
 62
     0
 10
43.5976858964134
 20
47.50472941447178
 30
0.0
  0
POINT
  5
3EB
  8
DEFPOINTS
 62
     0
 10
48.21155825253698
 20
49.43143174783798
 30
0.0
  0
ENDBLK
  5
3ED
  8
0
  0
BLOCK
  8
0
  2
*D62
 70
     1
 10
0.0
 20
0.0
 30
0.0
  3
*D62
  1

  0
LINE
  5
3F0
  8
0
 62
     0
 10
355.90475235692
 20
234.8933294424814
 30
0.0
 11
356.0533262976106
 21
234.9784901531857
 31
0.0
  0
LINE
  5
3F1
  8
0
 62
     0
 10
363.8615917937586
 20
239.4540895478663
 30
0.0
 11
366.0305544315775
 21
240.6973116019442
 31
0.0
  0
TEXT
  5
3F2
  8
0
 62
     0
 10
347.6087313766216
 20
230.4090215645085
 30
0.0
 40
2.5
  1
\U+22054.00
 50
29.82079140027989
  7
DEFAULT
  0
SOLID
  5
3F3
  8
0
 62
     0
 10
356.2605299732903
 20
234.6169963802159
 30
0.0
 11
355.846122621931
 21
235.3399839261555
 31
0.0
 12
358.2222889354295
 22
236.2217122072636
 32
0.0
 13
358.2222889354295
 23
236.2217122072636
 33
0.0
  0
SOLID
  5
3F4
  8
0
 62
     0
 10
363.654388118079
 20
239.8155833208361
 30
0.0
 11
364.0687954694383
 21
239.0925957748964
 31
0.0
 12
361.6926291559398
 22
238.2108674937883
 32
0.0
 13
361.6926291559398
 23
238.2108674937883
 33
0.0
  0
LINE
  5
3F5
  8
0
 62
     0
 10
357.4574590456846
 20
237.216289850526
 30
0.0
 11
362.4574590456846
 21
237.216289850526
 31
0.0
  0
LINE
  5
3F6
  8
0
 62
     0
 10
359.9574590456846
 20
234.716289850526
 30
0.0
 11
359.9574590456846
 21
239.716289850526
 31
0.0
  0
POINT
  5
3F7
  8
DEFPOINTS
 62
     0
 10
358.2222889354295
 20
236.2217122072636
 30
0.0
  0
POINT
  5
3F8
  8
DEFPOINTS
 62
     0
 10
361.6926291559398
 20
238.2108674937883
 30
0.0
  0
ENDBLK
  5
3FA
  8
0
  0
BLOCK
  8
0
  2
*D63
 70
     1
 10
0.0
 20
0.0
 30
0.0
  3
*D63
  1

  0
LINE
  5
3FD
  8
0
 62
     0
 10
361.0115208189763
 20
264.4859283634864
 30
0.0
 11
360.6850374163122
 21
264.4473907158557
 31
0.0
  0
LINE
  5
3FE
  8
0
 62
     0
 10
368.6298806750569
 20
265.3851889851961
 30
0.0
 11
371.1126441934146
 21
265.678250944365
 31
0.0
  0
TEXT
  5
3FF
  8
0
 62
     0
 10
351.6214717670874
 20
263.6141714861862
 30
0.0
 40
2.5
  1
\U+22053.00
 50
6.731963864317428
  7
DEFAULT
  0
SOLID
  5
400
  8
0
 62
     0
 10
365.6017207931662
 20
265.4473085539199
 30
0.0
 11
365.6994081128892
 21
264.6197207144674
 31
0.0
 12
363.16780093467
 22
264.7404526750246
 32
0.0
 13
363.16780093467
 23
264.7404526750246
 33
0.0
  0
SOLID
  5
401
  8
0
 62
     0
 10
368.5810370151954
 20
265.7989829049224
 30
0.0
 11
368.6787243349183
 21
264.9713950654698
 31
0.0
 12
366.1471171566992
 22
265.0921270260272
 32
0.0
 13
366.1471171566992
 23
265.0921270260272
 33
0.0
  0
LINE
  5
402
  8
0
 62
     0
 10
362.1574590456846
 20
264.9162898505259
 30
0.0
 11
367.1574590456846
 21
264.9162898505259
 31
0.0
  0
LINE
  5
403
  8
0
 62
     0
 10
364.6574590456846
 20
262.4162898505259
 30
0.0
 11
364.6574590456846
 21
267.4162898505259
 31
0.0
  0
POINT
  5
404
  8
DEFPOINTS
 62
     0
 10
363.16780093467
 20
264.7404526750246
 30
0.0
  0
POINT
  5
405
  8
DEFPOINTS
 62
     0
 10
366.1471171566992
 20
265.0921270260272
 30
0.0
  0
ENDBLK
  5
407
  8
0
  0
BLOCK
  8
0
  2
*X64
 70
     1
 10
0.0
 20
0.0
 30
0.0
  3
*X64
  1

  0
TEXT
  5
426
  8
0
 10
318.7476653241822
 20
358.597991753329
 30
0.0
 40
5.0
  1
Y (back/forward), drawing
  0
TEXT
  5
427
  8
0
 10
318.0333796098965
 20
350.5658632392727
 30
0.0
 40
5.0
  1
upside down
  0
ENDBLK
  5
429
  8
0
  0
BLOCK
  8
0
  2
*X65
 70
     1
 10
0.0
 20
0.0
 30
0.0
  3
*X65
  1

  0
TEXT
  5
42B
  8
0
 10
35.68677396863427
 20
174.0670477463747
 30
0.0
 40
5.0
  1
Y (left/Right) small plate mounted to mill,
  0
TEXT
  5
42C
  8
0
 10
34.97248825434856
 20
166.0349192323184
 30
0.0
 40
5.0
  1
larger to stepper
  0
ENDBLK
  5
42E
  8
0
  0
BLOCK
  8
0
  2
*X66
 70
     1
 10
0.0
 20
0.0
 30
0.0
  3
*X66
  1

  0
TEXT
  5
430
  8
0
 10
198.792829012395
 20
350.5892025623667
 30
0.0
 40
2.5
  1
Bolts to top of mill
  0
TEXT
  5
431
  8
0
 10
198.9118766314426
 20
346.5731383053386
 30
0.0
 40
2.5
  1
wth long
  0
ENDBLK
  5
433
  8
0
  0
BLOCK
  8
0
  2
*X67
 70
     1
 10
0.0
 20
0.0
 30
0.0
  3
*X67
  1

  0
TEXT
  5
435
  8
0
 10
198.792829012395
 20
346.4225358957
 30
0.0
 40
2.5
  1
M3 bolts, stepper
  0
TEXT
  5
436
  8
0
 10
198.792829012395
 20
342.4064716386719
 30
0.0
 40
2.5
  1
held on
  0
ENDBLK
  5
438
  8
0
  0
BLOCK
  8
0
  2
*X68
 70
     1
 10
0.0
 20
0.0
 30
0.0
  3
*X68
  1

  0
TEXT
  5
43A
  8
0
 10
198.9118766314426
 20
342.2558692290334
 30
0.0
 40
2.5
  1
end of mild steel rods
  0
TEXT
  5
43B
  8
0
 10
199.0309242504902
 20
338.2398049720052
 30
0.0
 40
2.5
  1
tapped
  0
ENDBLK
  5
43D
  8
0
  0
BLOCK
  8
0
  2
*X69
 70
     1
 10
0.0
 20
0.0
 30
0.0
  3
*X69
  1

  0
TEXT
  5
43F
  8
0
 10
198.792829012395
 20
338.0892025623667
 30
0.0
 40
2.5
  1
M4 at one end and M5
  0
TEXT
  5
440
  8
0
 10
198.9118766314426
 20
334.0731383053386
 30
0.0
 40
2.5
  1
at other.
  0
ENDBLK
  5
442
  8
0
  0
BLOCK
  8
0
  2
*X70
 70
     1
 10
0.0
 20
0.0
 30
0.0
  3
*X70
  1

  0
TEXT
  5
444
  8
0
 10
199.1499718695378
 20
333.9225358957
 30
0.0
 40
2.5
  1
All 4mm holes in
  0
TEXT
  5
445
  8
0
 10
198.792829012395
 20
329.9064716386719
 30
0.0
 40
2.5
  1
plate are
  0
ENDBLK
  5
447
  8
0
  0
BLOCK
  8
0
  2
*X71
 70
     1
 10
0.0
 20
0.0
 30
0.0
  3
*X71
  1

  0
TEXT
  5
449
  8
0
 10
198.9118766314426
 20
329.7558692290333
 30
0.0
 40
2.5
  1
counter bored for M4
  0
TEXT
  5
44A
  8
0
 10
198.9118766314426
 20
325.7398049720052
 30
0.0
 40
2.5
  1
cap head
  0
ENDBLK
  5
44C
  8
0
  0
BLOCK
  8
0
  2
*X72
 70
     1
 10
0.0
 20
0.0
 30
0.0
  3
*X72
  1

  0
TEXT
  5
44E
  8
0
 10
433.4709688194911
 20
332.9771828367519
 30
0.0
 40
2.5
  1
Bolts to front of mill,
  0
TEXT
  5
44F
  8
0
 10
433.4709688194911
 20
328.9611185797238
 30
0.0
 40
2.5
  1
held by two
  0
ENDBLK
  5
451
  8
0
  0
BLOCK
  8
0
  2
*X73
 70
     1
 10
0.0
 20
0.0
 30
0.0
  3
*X73
  1

  0
TEXT
  5
453
  8
0
 10
433.5900164385388
 20
328.8105161700852
 30
0.0
 40
2.5
  1
30mm*3mm self tapping/wood
  0
TEXT
  5
454
  8
0
 10
433.5900164385388
 20
324.7944519130571
 30
0.0
 40
2.5
  1
screws (B&Q)
  0
ENDBLK
  5
456
  8
0
  0
BLOCK
  8
0
  2
*X74
 70
     1
 10
0.0
 20
0.0
 30
0.0
  3
*X74
  1

  0
TEXT
  5
458
  8
0
 10
433.4709688194911
 20
324.6438495034186
 30
0.0
 40
2.5
  1
Extra large hole is to
  0
TEXT
  5
459
  8
0
 10
433.5900164385388
 20
320.6277852463904
 30
0.0
 40
2.5
  1
allow it to be
  0
ENDBLK
  5
45B
  8
0
  0
BLOCK
  8
0
  2
*X75
 70
     1
 10
0.0
 20
0.0
 30
0.0
  3
*X75
  1

  0
TEXT
  5
45D
  8
0
 10
433.4709688194911
 20
320.4771828367519
 30
0.0
 40
2.5
  1
bolted to the heavy base
  0
TEXT
  5
45E
  8
0
 10
433.5900164385388
 20
316.4611185797238
 30
0.0
 40
2.5
  1
of the mill
  0
ENDBLK
  5
460
  8
0
  0
BLOCK
  8
0
  2
*X76
 70
     1
 10
0.0
 20
0.0
 30
0.0
  3
*X76
  1

  0
TEXT
  5
462
  8
0
 10
433.5900164385388
 20
316.3105161700852
 30
0.0
 40
2.5
  1
if desired.  Other holes
  0
TEXT
  5
463
  8
0
 10
433.5900164385388
 20
312.2944519130571
 30
0.0
 40
2.5
  1
drilled 4mm
  0
ENDBLK
  5
465
  8
0
  0
BLOCK
  8
0
  2
*X77
 70
     1
 10
0.0
 20
0.0
 30
0.0
  3
*X77
  1

  0
TEXT
  5
467
  8
0
 10
433.5900164385388
 20
312.1438495034185
 30
0.0
 40
2.5
  1
and counter
  0
TEXT
  5
468
  8
0
 10
433.4709688194911
 20
308.1277852463904
 30
0.0
 40
2.5
  1
bored.
  0
ENDBLK
  5
46A
  8
0
  0
BLOCK
  8
0
  2
*X78
 70
     1
 10
0.0
 20
0.0
 30
0.0
  3
*X78
  1

  0
TEXT
  5
46C
  8
0
 10
295.8117368464168
 20
144.0573087064853
 30
0.0
 40
2.5
  1
Dual plate design stops
  0
TEXT
  5
46D
  8
0
 10
296.049832084512
 20
140.0412444494572
 30
0.0
 40
2.5
  1
the plate
  0
ENDBLK
  5
46F
  8
0
  0
BLOCK
  8
0
  2
*X79
 70
     1
 10
0.0
 20
0.0
 30
0.0
  3
*X79
  1

  0
TEXT
  5
471
  8
0
 10
296.049832084512
 20
139.8906420398186
 30
0.0
 40
2.5
  1
fouling on the mill base.
  0
TEXT
  5
472
  8
0
 10
295.9307844654644
 20
135.8745777827905
 30
0.0
 40
2.5
  1
Smaller
  0
ENDBLK
  5
474
  8
0
  0
BLOCK
  8
0
  2
*X80
 70
     1
 10
0.0
 20
0.0
 30
0.0
  3
*X80
  1

  0
TEXT
  5
476
  8
0
 10
295.8117368464168
 20
135.723975373152
 30
0.0
 40
2.5
  1
plate attached to mill,
  0
TEXT
  5
477
  8
0
 10
295.8117368464168
 20
131.7079111161239
 30
0.0
 40
2.5
  1
larger to
  0
ENDBLK
  5
479
  8
0
  0
BLOCK
  8
0
  2
*X81
 70
     1
 10
0.0
 20
0.0
 30
0.0
  3
*X81
  1

  0
TEXT
  5
47B
  8
0
 10
406.7403330906358
 20
119.807990961068
 30
0.0
 40
2.5
  1
Made from Brass and held by a rolled pin.
  0
TEXT
  5
47C
  8
0
 10
407.0974759477787
 20
115.7919267040398
 30
0.0
 40
2.5
  1
This is made
  0
ENDBLK
  5
47E
  8
0
  0
BLOCK
  8
0
  2
*X82
 70
     1
 10
0.0
 20
0.0
 30
0.0
  3
*X82
  1

  0
TEXT
  5
480
  8
0
 10
406.8593807096835
 20
115.6413242944013
 30
0.0
 40
2.5
  1
shorter than origional handel piece and
  0
TEXT
  5
481
  8
0
 10
406.7403330906358
 20
111.6252600373732
 30
0.0
 40
2.5
  1
requires a small
  0
ENDBLK
  5
483
  8
0
  0
BLOCK
  8
0
  2
*X83
 70
     1
 10
0.0
 20
0.0
 30
0.0
  3
*X83
  1

  0
TEXT
  5
485
  8
0
 10
406.8593807096835
 20
111.4746576277346
 30
0.0
 40
2.5
  1
amount of the lead screw to be trimmed
  0
TEXT
  5
486
  8
0
 10
406.8593807096835
 20
107.4585933707065
 30
0.0
 40
2.5
  1
off onc installed,
  0
ENDBLK
  5
488
  8
0
  0
BLOCK
  8
0
  2
*X84
 70
     1
 10
0.0
 20
0.0
 30
0.0
  3
*X84
  1

  0
TEXT
  5
48A
  8
0
 10
406.9784283287311
 20
107.307990961068
 30
0.0
 40
2.5
  1
this was to allow for a shorter distance
  0
TEXT
  5
48B
  8
0
 10
406.7403330906358
 20
103.2919267040399
 30
0.0
 40
2.5
  1
between ways
  0
ENDBLK
  5
48D
  8
0
  0
BLOCK
  8
0
  2
*X85
 70
     1
 10
0.0
 20
0.0
 30
0.0
  3
*X85
  1

  0
TEXT
  5
48F
  8
0
 10
406.8593807096835
 20
103.1413242944013
 30
0.0
 40
2.5
  1
and stepper motors.  6.36mm is 1/4" to
  0
TEXT
  5
490
  8
0
 10
406.7403330906358
 20
99.12526003737321
 30
0.0
 40
2.5
  1
match my flexible
  0
ENDBLK
  5
492
  8
0
  0
BLOCK
  8
0
  2
*X86
 70
     1
 10
0.0
 20
0.0
 30
0.0
  3
*X86
  1

  0
TEXT
  5
494
  8
0
 10
406.8593807096835
 20
98.97465762773467
 30
0.0
 40
2.5
  1
couplers
  0
TEXT
  5
495
  8
0
 10
406.7403330906358
 20
94.95859337070655
 30
0.0
 40
2.5
  1
(RS).
  0
ENDBLK
  5
497
  8
0
  0
ENDSEC
  0
SECTION
  2
ENTITIES
  0
LINE
  5
2A
  8
0
 10
41.30462207447522
 20
100.4680805811549
 30
0.0
 11
34.60462207447529
 21
100.4680805811549
 31
0.0
  0
LINE
  5
2B
  8
0
 10
34.60462207447529
 20
100.4680805811549
 30
0.0
 11
34.60462207447523
 21
43.86808058115483
 31
0.0
  0
LINE
  5
2C
  8
0
 10
41.30462207447522
 20
43.86808058115486
 30
0.0
 11
34.60462207447523
 21
43.86808058115483
 31
0.0
  0
LINE
  5
2D
  8
0
 10
34.60462207447529
 20
43.86808058115489
 30
0.0
 11
104.604622074475
 21
43.86808058115483
 31
0.0
  0
LINE
  5
2E
  8
0
 10
104.6046220744751
 20
54.16808058115487
 30
0.0
 11
104.6046220744751
 21
43.86808058115489
 31
0.0
  0
LINE
  5
2F
  8
0
 10
104.6046220744751
 20
43.86808058115486
 30
0.0
 11
104.604622074475
 21
100.4680805811549
 31
0.0
  0
CIRCLE
  5
30
  8
0
 10
42.60462207447523
 20
62.16808058115487
 30
0.0
 40
2.0
  0
CIRCLE
  5
31
  8
0
 10
96.60462207447523
 20
62.16808058115487
 30
0.0
 40
2.0
  0
LINE
  5
32
  8
0
 10
97.90462207447524
 20
100.4680805811549
 30
0.0
 11
104.604622074475
 21
100.4680805811549
 31
0.0
  0
LINE
  5
33
  8
0
 10
41.30462207447522
 20
43.86808058115486
 30
0.0
 11
97.90462207447524
 21
43.86808058115486
 31
0.0
  0
LINE
  5
34
  8
0
 10
97.90462207447524
 20
100.4680805811549
 30
0.0
 11
41.30462207447522
 21
100.4680805811549
 31
0.0
  0
LINE
  5
35
  8
0
 10
41.30462207447522
 20
43.86808058115486
 30
0.0
 11
97.90462207447524
 21
43.86808058115486
 31
0.0
  0
LINE
  5
36
  8
0
 10
97.90462207447524
 20
43.86808058115486
 30
0.0
 11
41.30462207447522
 21
43.86808058115486
 31
0.0
  0
CIRCLE
  5
37
  8
0
 10
69.60462207447523
 20
72.16808058115487
 30
0.0
 40
19.25
  0
CIRCLE
  5
38
  8
0
 10
45.90462207447524
 20
48.46808058115488
 30
0.0
 40
2.5
  0
CIRCLE
  5
39
  8
0
 10
45.90462207447524
 20
95.86808058115486
 30
0.0
 40
2.5
  0
LINE
  5
3A
  8
0
 10
41.30462207447522
 20
100.4680805811549
 30
0.0
 11
45.90462207447524
 21
100.4680805811549
 31
0.0
  0
CIRCLE
  5
3B
  8
0
 10
93.30462207447522
 20
48.46808058115488
 30
0.0
 40
2.5
  0
CIRCLE
  5
3C
  8
0
 10
93.30462207447522
 20
95.86808058115486
 30
0.0
 40
2.5
  0
LINE
  5
3D
  8
0
 10
355.3574590456846
 20
289.216289850526
 30
0.0
 11
411.9574590456846
 21
289.216289850526
 31
0.0
  0
CIRCLE
  5
3E
  8
0
 10
364.6574590456847
 20
264.916289850526
 30
0.0
 40
1.5
  0
CIRCLE
  5
3F
  8
0
 10
359.9574590456846
 20
284.616289850526
 30
0.0
 40
2.0
  0
CIRCLE
  5
40
  8
0
 10
407.3574590456846
 20
284.616289850526
 30
0.0
 40
2.0
  0
CIRCLE
  5
41
  8
0
 10
402.6574590456847
 20
264.916289850526
 30
0.0
 40
1.5
  0
LINE
  5
42
  8
0
 10
355.3574590456846
 20
232.616289850526
 30
0.0
 11
411.9574590456846
 21
232.616289850526
 31
0.0
  0
CIRCLE
  5
43
  8
0
 10
359.9574590456846
 20
237.216289850526
 30
0.0
 40
2.0
  0
CIRCLE
  5
44
  8
0
 10
407.3574590456846
 20
237.216289850526
 30
0.0
 40
2.0
  0
LINE
  5
45
  8
0
 10
355.3574590456846
 20
289.216289850526
 30
0.0
 11
355.3574590456846
 21
232.616289850526
 31
0.0
  0
LINE
  5
46
  8
0
 10
411.9574590456846
 20
289.216289850526
 30
0.0
 11
411.9574590456846
 21
232.616289850526
 31
0.0
  0
CIRCLE
  5
47
  8
0
 10
122.2185252179493
 20
266.5598762067942
 30
0.0
 40
2.0
  0
CIRCLE
  5
48
  8
0
 10
168.2185252179493
 20
257.5598762067942
 30
0.0
 40
2.0
  0
CIRCLE
  5
49
  8
0
 10
122.2185252179493
 20
209.5598762067942
 30
0.0
 40
2.0
  0
CIRCLE
  5
4A
  8
0
 10
168.2185252179493
 20
218.5598762067942
 30
0.0
 40
2.0
  0
LINE
  5
4B
  8
0
 10
178.2185252179493
 20
257.5598762067942
 30
0.0
 11
178.2185252179493
 21
203.5598762067942
 31
0.0
  0
LINE
  5
4C
  8
0
 10
178.2185252179493
 20
203.5598762067942
 30
0.0
 11
178.2185252179493
 21
272.5598762067942
 31
0.0
  0
LINE
  5
4D
  8
0
 10
168.2185252179493
 20
272.5598762067942
 30
0.0
 11
84.43980380274667
 21
272.5598762067942
 31
0.0
  0
LINE
  5
4E
  8
0
 10
84.43980380274667
 20
272.5598762067942
 30
0.0
 11
178.2185252179493
 21
272.5598762067942
 31
0.0
  0
LINE
  5
4F
  8
0
 10
84.43980380274667
 20
203.5598762067942
 30
0.0
 11
178.2185252179493
 21
203.5598762067942
 31
0.0
  0
CIRCLE
  5
50
  8
0
 10
89.51852521794933
 20
214.3598762067942
 30
0.0
 40
2.0
  0
CIRCLE
  5
51
  8
0
 10
89.51852521794933
 20
261.7598762067942
 30
0.0
 40
2.0
  0
CIRCLE
  5
52
  8
0
 10
136.9185252179493
 20
261.7598762067942
 30
0.0
 40
2.0
  0
CIRCLE
  5
53
  8
0
 10
136.9185252179493
 20
214.3598762067942
 30
0.0
 40
2.0
  0
CIRCLE
  5
54
  8
0
 10
113.2185252179493
 20
238.0598762067942
 30
0.0
 40
12.5
  0
LINE
  5
55
  8
0
 10
84.43980380274667
 20
203.5598762067942
 30
0.0
 11
84.43980380274667
 21
272.5598762067942
 31
0.0
  0
DIMENSION
  5
56
  8
0
  2
*D1
 10
178.2185252179493
 20
343.1939506745671
 30
0.0
 11
131.329164510348
 21
344.5602006745671
 31
0.0
 70
    32
  1
<>
  3
ISO-25
 13
84.43980380274667
 23
272.5598762067942
 33
0.0
 14
178.2185252179493
 24
272.5598762067942
 34
0.0
  0
DIMENSION
  5
67
  8
0
  2
*D2
 10
89.51852521794933
 20
328.9672250798424
 30
0.0
 11
141.3443574731234
 21
495.5002126197635
 31
0.0
 70
    32
  1
<>
  3
ISO-25
 13
84.43980380274667
 23
273.1848762067942
 33
0.0
 14
89.51852521794933
 24
261.7598762067942
 34
0.0
  0
DIMENSION
  5
75
  8
0
  2
*D3
 10
136.9185252179493
 20
288.0458865645135
 30
0.0
 11
110.679164510348
 21
289.4121365645135
 31
0.0
 70
    32
  1
<>
  3
ISO-25
 13
84.43980380274667
 23
273.8098762067942
 33
0.0
 14
136.9185252179493
 24
261.7598762067942
 34
0.0
  0
DIMENSION
  5
83
  8
0
  2
*D4
 10
168.2185252179493
 20
279.985622651468
 30
0.0
 11
126.329164510348
 21
281.351872651468
 31
0.0
 70
    32
  1
<>
  3
ISO-25
 13
84.43980380274667
 23
272.5598762067942
 33
0.0
 14
168.2185252179493
 24
257.5598762067942
 34
0.0
  0
DIMENSION
  5
91
  8
0
  2
*D5
 10
113.2185252179493
 20
317.6980652995665
 30
0.0
 11
98.82916451034799
 21
319.0643152995664
 31
0.0
 70
    32
  1
<>
  3
ISO-25
 13
84.43980380274667
 23
272.5598762067942
 33
0.0
 14
113.2185252179493
 24
238.0598762067942
 34
0.0
  0
DIMENSION
  5
9F
  8
0
  2
*D6
 10
69.21648647087162
 20
266.5598762067942
 30
0.0
 11
-66.92970163252551
 21
226.7985079713584
 31
0.0
 70
    32
  1
<>
  3
ISO-25
 13
84.43980380274667
 23
272.5598762067942
 33
0.0
 14
122.2185252179493
 24
266.5598762067942
 34
0.0
 50
90.0
  0
DIMENSION
  5
AD
  8
0
  2
*D7
 10
57.516551676235
 20
261.7598762067942
 30
0.0
 11
-77.42963642716211
 21
227.0034753686767
 31
0.0
 70
    32
  1
<>
  3
ISO-25
 13
83.81480380274667
 23
272.5598762067942
 33
0.0
 14
89.51852521794933
 24
261.7598762067942
 34
0.0
 50
90.0
  0
DIMENSION
  5
BB
  8
0
  2
*D8
 10
38.0603804915138
 20
257.5598762067942
 30
0.0
 11
36.6941304915138
 21
265.0598762067942
 31
0.0
 70
    32
  1
<>
  3
ISO-25
 13
84.43980380274667
 23
272.5598762067942
 33
0.0
 14
168.2185252179493
 24
257.5598762067942
 34
0.0
 50
90.0
  0
DIMENSION
  5
C9
  8
0
  2
*D9
 10
29.30397703089972
 20
238.0598762067942
 30
0.0
 11
27.93772703089972
 21
255.3098762067942
 31
0.0
 70
    32
  1
<>
  3
ISO-25
 13
84.43980380274667
 23
272.5598762067942
 33
0.0
 14
113.2185252179493
 24
238.0598762067942
 34
0.0
 50
90.0
  0
DIMENSION
  5
D7
  8
0
  2
*D10
 10
191.9100009619156
 20
218.5598762067942
 30
0.0
 11
190.5437509619156
 21
245.5598762067942
 31
0.0
 70
    32
  1
<>
  3
ISO-25
 13
84.43980380274667
 23
272.5598762067942
 33
0.0
 14
168.2185252179493
 24
218.5598762067942
 34
0.0
 50
90.0
  0
DIMENSION
  5
E5
  8
0
  2
*D11
 10
206.2616568048402
 20
214.3598762067942
 30
0.0
 11
204.8954068048402
 21
243.4598762067942
 31
0.0
 70
    32
  1
<>
  3
ISO-25
 13
178.2185252179493
 23
272.5598762067942
 33
0.0
 14
136.9185252179493
 24
214.3598762067942
 34
0.0
 50
90.0
  0
DIMENSION
  5
F3
  8
0
  2
*D12
 10
217.8482207380803
 20
209.5598762067942
 30
0.0
 11
216.4819707380803
 21
241.0598762067942
 31
0.0
 70
    32
  1
<>
  3
ISO-25
 13
178.2185252179493
 23
272.5598762067942
 33
0.0
 14
122.2185252179493
 24
209.5598762067942
 34
0.0
 50
90.0
  0
DIMENSION
  5
101
  8
0
  2
*D13
 10
239.3061375643607
 20
203.5598762067942
 30
0.0
 11
237.9398875643607
 21
238.0598762067942
 31
0.0
 70
    32
  1
<>
  3
ISO-25
 13
178.8435252179493
 23
272.5598762067942
 33
0.0
 14
178.2185252179493
 24
203.5598762067942
 34
0.0
 50
90.0
  0
DIMENSION
  5
10F
  8
0
  2
*D14
 10
121.4074792106035
 20
247.5039766142546
 30
0.0
 11
92.24501103381415
 21
216.0621370555113
 31
0.0
 70
    35
  1
<>
  3
ISO-25
 15
105.029571225295
 25
228.6157757993339
 35
0.0
 40
12.50000000000002
  0
DIMENSION
  5
11C
  8
0
  2
*D15
 10
42.60462207447523
 20
116.4744105644038
 30
0.0
 11
38.60462207447526
 21
117.8406605644038
 31
0.0
 70
    32
  1
<>
  3
ISO-25
 13
34.60462207447529
 23
100.4680805811549
 33
0.0
 14
42.60462207447523
 24
62.16808058115487
 34
0.0
  0
DIMENSION
  5
12A
  8
0
  2
*D16
 10
45.90462207447524
 20
122.0843213888534
 30
0.0
 11
40.25462207447527
 21
123.4505713888534
 31
0.0
 70
    32
  1
<>
  3
ISO-25
 13
34.60462207447529
 23
100.4680805811549
 33
0.0
 14
45.90462207447524
 24
95.86808058115486
 34
0.0
  0
DIMENSION
  5
138
  8
0
  2
*D17
 10
69.60462207447523
 20
129.7690783210981
 30
0.0
 11
52.10462207447526
 21
131.1353283210981
 31
0.0
 70
    32
  1
<>
  3
ISO-25
 13
34.60462207447529
 23
100.4680805811549
 33
0.0
 14
69.60462207447523
 24
72.16808058115487
 34
0.0
  0
DIMENSION
  5
146
  8
0
  2
*D18
 10
93.30462207447522
 20
136.1831418035461
 30
0.0
 11
63.95462207447525
 21
137.5493918035461
 31
0.0
 70
    32
  1
<>
  3
ISO-25
 13
34.60462207447529
 23
100.4680805811549
 33
0.0
 14
93.30462207447522
 24
95.86808058115486
 34
0.0
  0
DIMENSION
  5
154
  8
0
  2
*D19
 10
96.60462207447523
 20
146.7995227756342
 30
0.0
 11
65.60462207447526
 21
148.1657727756342
 31
0.0
 70
    32
  1
<>
  3
ISO-25
 13
34.60462207447529
 23
100.4680805811549
 33
0.0
 14
96.60462207447523
 24
62.16808058115487
 34
0.0
  0
DIMENSION
  5
162
  8
0
  2
*D20
 10
104.604622074475
 20
154.0982852750312
 30
0.0
 11
69.60462207447515
 21
155.4645352750312
 31
0.0
 70
    32
  1
<>
  3
ISO-25
 13
34.60462207447529
 23
100.4680805811549
 33
0.0
 14
104.604622074475
 24
100.4680805811549
 34
0.0
  0
DIMENSION
  5
170
  8
0
  2
*D21
 10
115.7660123884289
 20
95.86808058115486
 30
0.0
 11
65.31572209785128
 21
30.28944938694052
 31
0.0
 70
    32
  1
<>
  3
ISO-25
 13
104.604622074475
 23
100.4680805811549
 33
0.0
 14
93.30462207447522
 24
95.86808058115486
 34
0.0
 50
90.0
  0
DIMENSION
  5
17E
  8
0
  2
*D22
 10
127.9294900295493
 20
72.79308058115487
 30
0.0
 11
126.5632400295493
 21
86.63058058115487
 31
0.0
 70
    32
  1
<>
  3
ISO-25
 13
104.604622074475
 23
100.4680805811549
 33
0.0
 14
69.60462207447523
 24
72.79308058115487
 34
0.0
 50
90.0
  0
DIMENSION
  5
18C
  8
0
  2
*D23
 10
134.9751334173173
 20
62.16808058115487
 30
0.0
 11
133.6088834173173
 21
81.31808058115487
 31
0.0
 70
    32
  1
<>
  3
ISO-25
 13
104.604622074475
 23
100.4680805811549
 33
0.0
 14
96.60462207447523
 24
62.16808058115487
 34
0.0
 50
90.0
  0
DIMENSION
  5
19A
  8
0
  2
*D24
 10
145.3195679662989
 20
48.46808058115488
 30
0.0
 11
143.9533179662988
 21
74.46808058115488
 31
0.0
 70
    32
  1
<>
  3
ISO-25
 13
104.604622074475
 23
100.4680805811549
 33
0.0
 14
93.30462207447522
 24
48.46808058115488
 34
0.0
 50
90.0
  0
DIMENSION
  5
1A8
  8
0
  2
*D25
 10
157.8731296028221
 20
43.86808058115483
 30
0.0
 11
156.5068796028221
 21
72.16808058115485
 31
0.0
 70
    32
  1
<>
  3
ISO-25
 13
104.604622074475
 23
100.4680805811549
 33
0.0
 14
104.6046220744751
 24
43.86808058115483
 34
0.0
 50
90.0
  0
DIMENSION
  5
1B6
  8
0
  2
*D26
 10
76.57148068805492
 20
90.11314622768821
 30
0.0
 11
52.39331880203952
 21
31.80064488523453
 31
0.0
 70
    35
  1
<>
  3
ISO-25
 15
62.63776346089531
 25
54.22301493462147
 35
0.0
 40
19.25000000000008
  0
DIMENSION
  5
1C3
  8
0
  2
*D27
 10
189.2506656842823
 20
31.32993789369971
 30
0.0
 11
185.2506656842823
 21
32.69618789369971
 31
0.0
 70
    32
  1
<>
  3
ISO-25
 13
181.2506656842823
 23
97.81923420138372
 33
0.0
 14
189.2506656842823
 24
59.51923420138371
 34
0.0
  0
DIMENSION
  5
1D1
  8
0
  2
*D28
 10
197.2506656842823
 20
105.8675529674905
 30
0.0
 11
189.2506656842823
 21
107.2338029674905
 31
0.0
 70
    32
  1
<>
  3
ISO-25
 13
181.2506656842823
 23
97.81923420138372
 33
0.0
 14
197.2506656842823
 24
75.51923420138371
 34
0.0
  0
DIMENSION
  5
1DF
  8
0
  2
*D29
 10
216.2506656842823
 20
110.0279195774515
 30
0.0
 11
198.7506656842823
 21
111.3941695774515
 31
0.0
 70
    32
  1
<>
  3
ISO-25
 13
181.2506656842823
 23
97.81923420138372
 33
0.0
 14
216.2506656842823
 24
69.51923420138371
 34
0.0
  0
DIMENSION
  5
1ED
  8
0
  2
*D30
 10
235.2506656842823
 20
115.6659043771585
 30
0.0
 11
208.2506656842823
 21
117.0321543771585
 31
0.0
 70
    32
  1
<>
  3
ISO-25
 13
181.2506656842823
 23
97.81923420138372
 33
0.0
 14
235.2506656842823
 24
75.51923420138371
 34
0.0
  0
DIMENSION
  5
1FB
  8
0
  2
*D31
 10
239.9506656842823
 20
124.6129282278419
 30
0.0
 11
210.6006656842823
 21
125.9791782278418
 31
0.0
 70
    32
  1
<>
  3
ISO-25
 13
181.2506656842823
 23
97.81923420138372
 33
0.0
 14
239.9506656842823
 24
93.2192342013837
 34
0.0
  0
DIMENSION
  5
209
  8
0
  2
*D32
 10
243.2506656842823
 20
134.9986895922452
 30
0.0
 11
212.2506656842823
 21
136.3649395922452
 31
0.0
 70
    32
  1
<>
  3
ISO-25
 13
181.2506656842823
 23
97.81923420138372
 33
0.0
 14
243.2506656842823
 24
59.51923420138371
 34
0.0
  0
DIMENSION
  5
217
  8
0
  2
*D33
 10
251.2506656842823
 20
142.7138272846589
 30
0.0
 11
216.2506656842823
 21
144.0800772846589
 31
0.0
 70
    32
  1
<>
  3
ISO-25
 13
181.2506656842823
 23
97.81923420138372
 33
0.0
 14
251.2506656842823
 24
97.81923420138372
 34
0.0
  0
DIMENSION
  5
225
  8
0
  2
*D34
 10
266.5468955426462
 20
93.2192342013837
 30
0.0
 11
217.4210284419543
 21
-47.74983856993939
 31
0.0
 70
    32
  1
<>
  3
ISO-25
 13
251.2506656842823
 23
97.81923420138372
 33
0.0
 14
239.9506656842823
 24
93.2192342013837
 34
0.0
 50
90.0
  0
DIMENSION
  5
233
  8
0
  2
*D35
 10
275.2790512494358
 20
75.51923420138371
 30
0.0
 11
273.9128012494358
 21
86.66923420138372
 31
0.0
 70
    32
  1
<>
  3
ISO-25
 13
251.2506656842823
 23
97.81923420138372
 33
0.0
 14
235.2506656842823
 24
75.51923420138371
 34
0.0
 50
90.0
  0
DIMENSION
  5
241
  8
0
  2
*D36
 10
288.1124316788585
 20
69.51923420138371
 30
0.0
 11
286.7461816788585
 21
83.66923420138372
 31
0.0
 70
    32
  1
<>
  3
ISO-25
 13
251.2506656842823
 23
97.81923420138372
 33
0.0
 14
216.2506656842823
 24
69.51923420138371
 34
0.0
 50
90.0
  0
DIMENSION
  5
24F
  8
0
  2
*D37
 10
296.6456677867653
 20
59.51923420138371
 30
0.0
 11
295.2794177867653
 21
78.66923420138372
 31
0.0
 70
    32
  1
<>
  3
ISO-25
 13
251.2506656842823
 23
97.81923420138372
 33
0.0
 14
243.2506656842823
 24
59.51923420138371
 34
0.0
 50
90.0
  0
DIMENSION
  5
25D
  8
0
  2
*D38
 10
304.8518275641428
 20
51.51923420138371
 30
0.0
 11
303.4855775641428
 21
74.66923420138372
 31
0.0
 70
    32
  1
<>
  3
ISO-25
 13
251.2506656842823
 23
97.81923420138372
 33
0.0
 14
251.2506656842822
 24
51.51923420138371
 34
0.0
 50
90.0
  0
DIMENSION
  5
26B
  8
0
  2
*D39
 10
359.9574590456846
 20
298.8750048828515
 30
0.0
 11
547.164938568527
 21
450.3618823242772
 31
0.0
 70
    32
  1
<>
  3
ISO-25
 13
355.3574590456846
 23
289.216289850526
 33
0.0
 14
359.9574590456846
 24
284.616289850526
 34
0.0
  0
DIMENSION
  5
279
  8
0
  2
*D40
 10
364.6574590456847
 20
310.8021376112772
 30
0.0
 11
360.0074590456846
 21
312.1683876112772
 31
0.0
 70
    32
  1
<>
  3
ISO-25
 13
355.3574590456846
 23
289.216289850526
 33
0.0
 14
364.6574590456847
 24
264.916289850526
 34
0.0
  0
DIMENSION
  5
287
  8
0
  2
*D41
 10
383.6574590456847
 20
318.7503721483738
 30
0.0
 11
369.5074590456846
 21
320.1166221483738
 31
0.0
 70
    32
  1
<>
  3
ISO-25
 13
355.3574590456846
 23
289.216289850526
 33
0.0
 14
383.6574590456847
 24
260.916289850526
 34
0.0
  0
DIMENSION
  5
295
  8
0
  2
*D42
 10
402.6574590456847
 20
326.0759038897804
 30
0.0
 11
379.0074590456846
 21
327.4421538897804
 31
0.0
 70
    32
  1
<>
  3
ISO-25
 13
355.3574590456846
 23
289.216289850526
 33
0.0
 14
402.6574590456847
 24
264.916289850526
 34
0.0
  0
DIMENSION
  5
2A3
  8
0
  2
*D43
 10
407.3574590456846
 20
333.1472027277107
 30
0.0
 11
381.3574590456846
 21
334.5134527277107
 31
0.0
 70
    32
  1
<>
  3
ISO-25
 13
355.3574590456846
 23
289.216289850526
 33
0.0
 14
407.3574590456846
 24
284.616289850526
 34
0.0
  0
DIMENSION
  5
2B1
  8
0
  2
*D44
 10
411.9574590456846
 20
341.915613452031
 30
0.0
 11
383.6574590456846
 21
343.281863452031
 31
0.0
 70
    32
  1
<>
  3
ISO-25
 13
355.3574590456846
 23
289.216289850526
 33
0.0
 14
411.9574590456846
 24
289.216289850526
 34
0.0
  0
DIMENSION
  5
2BF
  8
0
  2
*D45
 10
420.8414091978053
 20
284.616289850526
 30
0.0
 11
276.0170142725423
 21
66.49996025162321
 31
0.0
 70
    32
  1
<>
  3
ISO-25
 13
411.9574590456846
 23
289.216289850526
 33
0.0
 14
407.3574590456846
 24
284.616289850526
 34
0.0
 50
90.0
  0
DIMENSION
  5
2CD
  8
0
  2
*D46
 10
430.6360973983265
 20
264.916289850526
 30
0.0
 11
429.2698473983265
 21
277.066289850526
 31
0.0
 70
    32
  1
<>
  3
ISO-25
 13
411.9574590456846
 23
289.216289850526
 33
0.0
 14
402.6574590456847
 24
264.916289850526
 34
0.0
 50
90.0
  0
DIMENSION
  5
2DB
  8
0
  2
*D47
 10
438.6223439667331
 20
260.916289850526
 30
0.0
 11
437.2560939667332
 21
275.066289850526
 31
0.0
 70
    32
  1
<>
  3
ISO-25
 13
411.9574590456846
 23
289.216289850526
 33
0.0
 14
383.6574590456847
 24
260.916289850526
 34
0.0
 50
90.0
  0
DIMENSION
  5
2E9
  8
0
  2
*D48
 10
447.3480325324518
 20
237.216289850526
 30
0.0
 11
445.9817825324518
 21
263.216289850526
 31
0.0
 70
    32
  1
<>
  3
ISO-25
 13
411.9574590456846
 23
289.216289850526
 33
0.0
 14
407.3574590456846
 24
237.216289850526
 34
0.0
 50
90.0
  0
DIMENSION
  5
2F7
  8
0
  2
*D49
 10
455.963343190304
 20
232.616289850526
 30
0.0
 11
454.597093190304
 21
260.916289850526
 31
0.0
 70
    32
  1
<>
  3
ISO-25
 13
411.9574590456846
 23
289.216289850526
 33
0.0
 14
411.9574590456846
 24
232.616289850526
 34
0.0
 50
90.0
  0
LINE
  5
305
  8
0
 10
427.5368666342245
 20
155.2664755418531
 30
0.0
 11
448.5368666342245
 21
155.2664755418531
 31
0.0
  0
LINE
  5
306
  8
0
 10
427.5368666342245
 20
150.7664755418531
 30
0.0
 11
448.5368666342245
 21
150.7664755418531
 31
0.0
  0
LINE
  5
307
  8
0
 10
427.5368666342245
 20
155.2664755418531
 30
0.0
 11
427.5368666342245
 21
159.0164755418531
 31
0.0
  0
LINE
  5
308
  8
0
 10
427.5368666342245
 20
150.7664755418531
 30
0.0
 11
427.5368666342245
 21
147.0164755418531
 31
0.0
  0
LINE
  5
309
  8
0
 10
427.5368666342245
 20
147.0164755418531
 30
0.0
 11
438.5368666342245
 21
147.0164755418531
 31
0.0
  0
LINE
  5
30A
  8
0
 10
427.5368666342245
 20
159.0164755418531
 30
0.0
 11
438.5368666342245
 21
159.0164755418531
 31
0.0
  0
CIRCLE
  5
30B
  8
0
 10
435.5368666342245
 20
153.0164755418531
 30
0.0
 40
1.0
  0
LINE
  5
30C
  8
0
 10
438.5368666342245
 20
156.1964755418531
 30
0.0
 11
438.5368666342245
 21
159.0164755418531
 31
0.0
  0
LINE
  5
30D
  8
0
 10
438.5368666342245
 20
159.0164755418531
 30
0.0
 11
438.5368666342245
 21
156.1964755418531
 31
0.0
  0
LINE
  5
30E
  8
0
 10
438.5368666342245
 20
156.1964755418531
 30
0.0
 11
448.5368666342245
 21
156.1964755418531
 31
0.0
  0
LINE
  5
30F
  8
0
 10
438.5368666342245
 20
149.8364755418531
 30
0.0
 11
448.5368666342245
 21
149.8364755418531
 31
0.0
  0
LINE
  5
310
  8
0
 10
438.5368666342245
 20
156.1964755418531
 30
0.0
 11
448.5368666342245
 21
156.1964755418531
 31
0.0
  0
LINE
  5
311
  8
0
 10
448.5368666342245
 20
156.1964755418531
 30
0.0
 11
448.5368666342245
 21
155.2664755418531
 31
0.0
  0
LINE
  5
312
  8
0
 10
448.5368666342245
 20
150.7664755418531
 30
0.0
 11
448.5368666342245
 21
149.8364755418531
 31
0.0
  0
LINE
  5
313
  8
0
 10
438.5368666342245
 20
149.8364755418531
 30
0.0
 11
438.5368666342245
 21
147.0164755418531
 31
0.0
  0
LINE
  5
314
  8
0
 10
427.5368666342245
 20
155.2664755418531
 30
0.0
 11
427.5368666342245
 21
150.7664755418531
 31
0.0
  0
LINE
  5
315
  8
0
 10
448.5368666342245
 20
155.2664755418531
 30
0.0
 11
448.5368666342245
 21
150.7664755418531
 31
0.0
  0
DIMENSION
  5
316
  8
0
  2
*D50
 10
423.8483617952296
 20
150.7664755418531
 30
0.0
 11
345.9738740243031
 21
-68.85333035576176
 31
0.0
 70
    32
  1
<>
  3
ISO-25
 13
427.5368666342245
 23
155.2664755418531
 33
0.0
 14
427.5368666342245
 24
150.7664755418531
 34
0.0
 50
90.0
  0
DIMENSION
  5
324
  8
0
  2
*D51
 10
417.2895948420469
 20
147.0164755418531
 30
0.0
 11
339.4151070711205
 21
-67.62644687917043
 31
0.0
 70
    32
  1
<>
  3
ISO-25
 13
427.5368666342245
 23
159.0164755418531
 33
0.0
 14
427.5368666342245
 24
147.0164755418531
 34
0.0
 50
90.0
  0
DIMENSION
  5
332
  8
0
  2
*D52
 10
435.5368666342245
 20
163.0036843765998
 30
0.0
 11
431.5368666342245
 21
164.3699343765998
 31
0.0
 70
    32
  1
<>
  3
ISO-25
 13
427.5368666342245
 23
159.0164755418531
 33
0.0
 14
435.5368666342245
 24
153.0164755418531
 34
0.0
  0
DIMENSION
  5
340
  8
0
  2
*D53
 10
438.5368666342245
 20
168.3755852040875
 30
0.0
 11
433.0368666342245
 21
169.7418352040876
 31
0.0
 70
    32
  1
<>
  3
ISO-25
 13
427.5368666342245
 23
159.0164755418531
 33
0.0
 14
438.5368666342245
 24
159.0164755418531
 34
0.0
  0
DIMENSION
  5
34E
  8
0
  2
*D54
 10
448.5368666342245
 20
136.7888114375883
 30
0.0
 11
443.5368666342245
 21
138.1550614375883
 31
0.0
 70
    32
  1
<>
  3
ISO-25
 13
438.5368666342245
 23
147.0164755418531
 33
0.0
 14
448.5368666342245
 24
149.8364755418531
 34
0.0
  0
DIMENSION
  5
35C
  8
0
  2
*D55
 10
458.7926077324776
 20
149.8364755418531
 30
0.0
 11
380.9181199615512
 21
-84.71795332438575
 31
0.0
 70
    32
  1
<>
  3
ISO-25
 13
448.5368666342245
 23
156.1964755418531
 33
0.0
 14
448.5368666342245
 24
149.8364755418531
 34
0.0
 50
90.0
  0
LINE
  5
36A
  8
0
 10
181.2506656842823
 20
51.51923420138371
 30
0.0
 11
251.2506656842822
 21
51.51923420138371
 31
0.0
  0
LINE
  5
36B
  8
0
 10
181.2506656842823
 20
97.81923420138372
 30
0.0
 11
251.2506656842823
 21
97.81923420138372
 31
0.0
  0
LINE
  5
36C
  8
0
 10
181.2506656842823
 20
88.51923420138371
 30
0.0
 11
181.2506656842823
 21
58.51923420138371
 31
0.0
  0
CIRCLE
  5
36D
  8
0
 10
189.2506656842823
 20
59.51923420138371
 30
0.0
 40
2.0
  0
LINE
  5
36E
  8
0
 10
181.2506656842823
 20
58.51923420138371
 30
0.0
 11
181.2506656842823
 21
51.51923420138371
 31
0.0
  0
LINE
  5
36F
  8
0
 10
181.2506656842823
 20
58.51923420138371
 30
0.0
 11
181.2506656842823
 21
51.51923420138371
 31
0.0
  0
LINE
  5
370
  8
0
 10
181.2506656842823
 20
51.51923420138371
 30
0.0
 11
181.2506656842823
 21
54.51923420138371
 31
0.0
  0
LINE
  5
371
  8
0
 10
181.2506656842823
 20
51.51923420138371
 30
0.0
 11
184.2506656842823
 21
51.51923420138371
 31
0.0
  0
CIRCLE
  5
372
  8
0
 10
197.2506656842823
 20
75.51923420138371
 30
0.0
 40
1.5
  0
CIRCLE
  5
373
  8
0
 10
192.5506656842823
 20
93.2192342013837
 30
0.0
 40
2.0
  0
LINE
  5
374
  8
0
 10
181.2506656842823
 20
88.51923420138371
 30
0.0
 11
181.2506656842823
 21
97.81923420138372
 31
0.0
  0
LINE
  5
375
  8
0
 10
251.2506656842823
 20
88.51923420138371
 30
0.0
 11
251.2506656842823
 21
58.51923420138371
 31
0.0
  0
CIRCLE
  5
376
  8
0
 10
243.2506656842823
 20
59.51923420138371
 30
0.0
 40
2.0
  0
LINE
  5
377
  8
0
 10
251.2506656842823
 20
58.51923420138371
 30
0.0
 11
251.2506656842822
 21
51.51923420138371
 31
0.0
  0
CIRCLE
  5
378
  8
0
 10
239.9506656842823
 20
93.2192342013837
 30
0.0
 40
2.0
  0
LINE
  5
379
  8
0
 10
251.2506656842823
 20
88.51923420138371
 30
0.0
 11
251.2506656842823
 21
97.81923420138372
 31
0.0
  0
CIRCLE
  5
37A
  8
0
 10
235.2506656842823
 20
75.51923420138371
 30
0.0
 40
1.5
  0
CIRCLE
  5
37B
  8
0
 10
216.2506656842823
 20
69.51923420138371
 30
0.0
 40
12.5
  0
CIRCLE
  5
37C
  8
0
 10
383.6574590456847
 20
260.916289850526
 30
0.0
 40
12.5
  0
LINE
  5
37D
  8
0
 10
359.9574590456846
 20
284.616289850526
 30
0.0
 11
407.3574590456846
 21
284.616289850526
 31
0.0
  0
LINE
  5
37E
  8
0
 10
383.6574590456847
 20
289.216289850526
 30
0.0
 11
383.6574590456847
 21
273.416289850526
 31
0.0
  0
CIRCLE
  5
37F
  8
0
 10
383.6574590456847
 20
281.316289850526
 30
0.0
 40
3.0
  0
DIMENSION
  5
380
  8
0
  2
*D56
 10
192.5506656842823
 20
100.1427575912711
 30
0.0
 11
186.9006656842823
 21
101.5090075912711
 31
0.0
 70
    32
  1
<>
  3
ISO-25
 13
181.2506656842823
 23
97.81923420138372
 33
0.0
 14
192.5506656842823
 24
93.2192342013837
 34
0.0
  0
POLYLINE
  5
38E
  8
0
 66
     1
 10
0.0
 20
0.0
 30
0.0
  0
VERTEX
  5
390
  8
0
 10
11.09751007250185
 20
372.6196867400034
 30
0.0
  0
VERTEX
  5
391
  8
0
 10
275.2051693741965
 20
372.6196867400034
 30
0.0
  0
VERTEX
  5
392
  8
0
 10
275.2051693741965
 20
193.8370094877838
 30
0.0
  0
VERTEX
  5
393
  8
0
 10
11.09751007250185
 20
193.8370094877838
 30
0.0
  0
VERTEX
  5
394
  8
0
 10
11.09751007250185
 20
372.6196867400034
 30
0.0
  0
SEQEND
  5
38F
  8
0
  0
TEXT
  5
395
  8
0
 10
31.0300759471362
 20
352.8504481421579
 30
0.0
 40
5.0
  1
Z
  0
POLYLINE
  5
396
  8
0
 66
     1
 10
0.0
 20
0.0
 30
0.0
  0
VERTEX
  5
398
  8
0
 10
278.7483067492686
 20
372.7311224471636
 30
0.0
  0
VERTEX
  5
399
  8
0
 10
542.8559660509632
 20
372.7311224471636
 30
0.0
  0
VERTEX
  5
39A
  8
0
 10
542.8559660509632
 20
193.9484451949439
 30
0.0
  0
VERTEX
  5
39B
  8
0
 10
278.7483067492686
 20
193.9484451949439
 30
0.0
  0
VERTEX
  5
39C
  8
0
 10
278.7483067492686
 20
372.7311224471636
 30
0.0
  0
SEQEND
  5
397
  8
0
  0
INSERT
  5
39D
  8
0
  2
*X64
 10
0.0
 20
0.0
 30
0.0
  0
POLYLINE
  5
39E
  8
0
 66
     1
 10
0.0
 20
0.0
 30
0.0
  0
VERTEX
  5
3A0
  8
0
 10
10.91167750123174
 20
190.224225771317
 30
0.0
  0
VERTEX
  5
3A1
  8
0
 10
385.4489990924304
 20
190.224225771317
 30
0.0
  0
VERTEX
  5
3A2
  8
0
 10
385.4489990924304
 20
11.44154851909741
 30
0.0
  0
VERTEX
  5
3A3
  8
0
 10
10.91167750123174
 20
11.44154851909741
 30
0.0
  0
VERTEX
  5
3A4
  8
0
 10
10.91167750123174
 20
190.224225771317
 30
0.0
  0
SEQEND
  5
39F
  8
0
  0
INSERT
  5
3A5
  8
0
  2
*X65
 10
0.0
 20
0.0
 30
0.0
  0
POLYLINE
  5
3A6
  8
0
 66
     1
 10
0.0
 20
0.0
 30
0.0
  0
VERTEX
  5
3A8
  8
0
 10
389.7318909958668
 20
190.224225771317
 30
0.0
  0
VERTEX
  5
3A9
  8
0
 10
542.8559660509632
 20
190.224225771317
 30
0.0
  0
VERTEX
  5
3AA
  8
0
 10
542.8559660509632
 20
12.99600217167415
 30
0.0
  0
VERTEX
  5
3AB
  8
0
 10
389.7318909958668
 20
12.99600217167415
 30
0.0
  0
VERTEX
  5
3AC
  8
0
 10
389.7318909958668
 20
190.224225771317
 30
0.0
  0
SEQEND
  5
3A7
  8
0
  0
DIMENSION
  5
3AD
  8
0
  2
*D57
 10
198.5870341247685
 20
74.83797111617153
 30
0.0
 11
190.4543805941595
 21
80.59459960436446
 31
0.0
 70
    35
  1
<>
  3
ISO-25
 15
195.9142972437963
 25
76.20049728659586
 35
0.0
 40
1.50000000000004
  0
DIMENSION
  5
3BA
  8
0
  2
*D58
 10
187.3892467945129
 20
58.78771542731869
 30
0.0
 11
197.4372413680116
 21
64.27831011741728
 31
0.0
 70
    35
  1
<>
  3
ISO-25
 15
191.1120845740517
 25
60.25075297544862
 35
0.0
 40
1.999999999999987
  0
DIMENSION
  5
3C7
  8
0
  2
*D59
 10
206.6091459282528
 20
77.47480437542475
 30
0.0
 11
240.5812883237068
 21
51.30359183066501
 31
0.0
 70
    35
  1
<>
  3
ISO-25
 15
225.8921854403118
 25
61.56366402734267
 35
0.0
 40
12.49999999999997
  0
DIMENSION
  5
3D4
  8
0
  2
*D60
 10
44.56849942477953
 20
62.54647951477134
 30
0.0
 11
33.1421748401815
 21
61.80625557067305
 31
0.0
 70
    35
  1
<>
  3
ISO-25
 15
40.64074472417093
 25
61.78968164753837
 35
0.0
 40
2.000000000000083
  0
DIMENSION
  5
3E1
  8
0
  2
*D61
 10
48.21155825253698
 20
49.43143174783798
 30
0.0
 11
35.79171498291104
 21
45.80013471262759
 31
0.0
 70
    35
  1
<>
  3
ISO-25
 15
43.5976858964134
 25
47.50472941447178
 35
0.0
 40
2.500000000000004
  0
DIMENSION
  5
3EE
  8
0
  2
*D62
 10
361.6926291559398
 20
238.2108674937883
 30
0.0
 11
351.1232534706499
 21
233.8066510341663
 31
0.0
 70
    35
  1
<>
  3
ISO-25
 15
358.2222889354295
 25
236.2217122072636
 35
0.0
 40
2.000000000000017
  0
DIMENSION
  5
3FB
  8
0
  2
*D63
 10
366.1471171566992
 20
265.0921270260272
 30
0.0
 11
356.1868802757334
 21
265.3613969186025
 31
0.0
 70
    35
  1
<>
  3
ISO-25
 15
363.16780093467
 25
264.7404526750246
 35
0.0
 40
1.499999999999949
  0
INSERT
  5
408
  8
0
  2
*X66
 10
0.0
 20
0.0
 30
0.0
  0
INSERT
  5
409
  8
0
  2
*X67
 10
0.0
 20
0.0
 30
0.0
  0
INSERT
  5
40A
  8
0
  2
*X68
 10
0.0
 20
0.0
 30
0.0
  0
INSERT
  5
40B
  8
0
  2
*X69
 10
0.0
 20
0.0
 30
0.0
  0
INSERT
  5
40C
  8
0
  2
*X70
 10
0.0
 20
0.0
 30
0.0
  0
INSERT
  5
40D
  8
0
  2
*X71
 10
0.0
 20
0.0
 30
0.0
  0
TEXT
  5
40E
  8
0
 10
198.792829012395
 20
325.5892025623666
 30
0.0
 40
2.5
  1
bolts.
  0
INSERT
  5
40F
  8
0
  2
*X72
 10
0.0
 20
0.0
 30
0.0
  0
INSERT
  5
410
  8
0
  2
*X73
 10
0.0
 20
0.0
 30
0.0
  0
INSERT
  5
411
  8
0
  2
*X74
 10
0.0
 20
0.0
 30
0.0
  0
INSERT
  5
412
  8
0
  2
*X75
 10
0.0
 20
0.0
 30
0.0
  0
INSERT
  5
413
  8
0
  2
*X76
 10
0.0
 20
0.0
 30
0.0
  0
INSERT
  5
414
  8
0
  2
*X77
 10
0.0
 20
0.0
 30
0.0
  0
INSERT
  5
415
  8
0
  2
*X78
 10
0.0
 20
0.0
 30
0.0
  0
INSERT
  5
416
  8
0
  2
*X79
 10
0.0
 20
0.0
 30
0.0
  0
INSERT
  5
417
  8
0
  2
*X80
 10
0.0
 20
0.0
 30
0.0
  0
TEXT
  5
418
  8
0
 10
295.8117368464168
 20
131.5573087064853
 30
0.0
 40
2.5
  1
motor.
  0
INSERT
  5
419
  8
0
  2
*X81
 10
0.0
 20
0.0
 30
0.0
  0
INSERT
  5
41A
  8
0
  2
*X82
 10
0.0
 20
0.0
 30
0.0
  0
INSERT
  5
41B
  8
0
  2
*X83
 10
0.0
 20
0.0
 30
0.0
  0
INSERT
  5
41C
  8
0
  2
*X84
 10
0.0
 20
0.0
 30
0.0
  0
INSERT
  5
41D
  8
0
  2
*X85
 10
0.0
 20
0.0
 30
0.0
  0
INSERT
  5
41E
  8
0
  2
*X86
 10
0.0
 20
0.0
 30
0.0
  0
ENDSEC
  0
EOF
